Loading...
Error

Скачать Кукушка (Александр Рогожкин) [2002, драма, военный, комедия, DVDRip-AVC] [Оригинал Rus]+[International]+[Sub]x3 торрент без регистрации

Статистика раздачи
Размер:  2,22 GB   |    Скачан:  15 раз
Сидов:  1  [  0 KB/s  ]  
 
 
 
Автор Сообщение

Marsianka

[] 

Информация о фильме
Название: Кукушка
Год выхода: 2002
Жанр: драма, военный, комедия
Режиссер: Александр Рогожкин
В ролях: Анни-Кристина Юусо, Вилле Хаапасало, Виктор Бычков, Алексей Кашников, Алексей Панжеев, Владимир Матвеев, Владимир Кныш, Валерий Яковлев, Сергей Берзин, Юлия Проничева, Анна Воронина, Михаил Коробочкин, Александр Куйкка, Константин Хабенский, Александр Мельников (II)

О фильме: Сентябрь 1944 года, несколько дней до выхода Финляндии из Второй Мировой войны. Финскому снайперу-смертнику Вейко, прикованному к скале, удается освободиться от цепей. Капитан Советской армии Иван арестован СМЕРШем, и тоже только чудом остается в живых.

Солдат враждующих армий приютила у себя на хуторе саамка Анни. Для нее они не враги, а просто мужчины. И все трое говорят на разных языках…



Страна: Россия
Студия: Кинокомпания CTB
Продолжительность: 01:39:19

Файл
Кодек: х264
Качество: DVDRip-AVC
Видео: MPEG-4 AVC, 692x544@1008x544, 25 fps, 2367 Кбит/с

48 kHz, AC3 Dolby Digital, 6 ch, ~384 kbps avg / Rus
48 kHz, AC3 Dolby Digital, 6 ch, ~384 kbps avg / International (Интернациональная версия (без закадрового перевода))
Субтитры: Русские, русские (для интернациональной версии), английские

Общее
Уникальный идентификатор : 176588082612193320334907599218661167745 (0x84D9A0AB360EB9E29AC9C22A70309281)
Полное имя : D:Кукушка_2002-DVDRip-AVC.mkv
Формат : Matroska
Размер файла : 2,22 Гбайт
Продолжительность : 1 ч. 39 м.
Общий поток : 3194 Кбит/сек
Дата кодирования : UTC 2017-08-31 17:46:56
Программа кодирования : mkvmerge v5.8.0 ('No Sleep / Pillow') built on Sep 2 2012 15:37:04
Библиотека кодирования : libebml v1.2.3 + libmatroska v1.3.0

Видео
Идентификатор : 1
Формат : AVC
Формат/Информация : Advanced Video Codec
Профиль формата : High@L4.1
Параметр CABAC формата : Да
Параметр ReFrames формата : 14 кадры
Идентификатор кодека : V_MPEG4/ISO/AVC
Продолжительность : 1 ч. 39 м.
Битрейт : 2362 Кбит/сек
Ширина : 692 пикс.
Высота : 544 пикс.
Соотношение сторон : 1,853
Частота кадров : 25,000 кадр/сек
Цветовое пространство : YUV
Подвыборка цветности : 4:2:0
Битовая глубина : 8 бит
Тип развёртки : Прогрессивная
Бит/(Пиксели*Кадры) : 0.251
Размер потока : 1,64 Гбайт (74%)
Заголовок : korsar.tv
Библиотека кодирования : x264 core 148 r2744kMod b97ae06
Настройки программы : cabac=1 / ref=14 / deblock=1:-2:-2 / analyse=0x3:0x133 / me=umh / subme=10 / psy=1 / fade_compensate=0.00 / psy_rd=1.05:0.10 / mixed_ref=1 / me_range=32 / chroma_me=1 / trellis=2 / 8x8dct=1 / cqm=0 / deadzone=21,11 / fast_pskip=1 / chroma_qp_offset=-3 / threads=12 / lookahead_threads=3 / sliced_threads=0 / nr=0 / decimate=1 / interlaced=0 / bluray_compat=0 / constrained_intra=0 / bframes=11 / b_pyramid=2 / b_adapt=2 / b_bias=0 / direct=1 / weightb=1 / open_gop=0 / weightp=2 / keyint=250 / keyint_min=25 / scenecut=40 / intra_refresh=0 / rc=crf / mbtree=0 / crf=17.4000 / qcomp=0.63 / qpmin=0 / qpmax=39 / qpstep=4 / ip_ratio=1.40 / pb_ratio=1.30 / aq=1:1.00
Язык : English
Основные цвета : BT.470-6 System B, BT.470-6 System G, BT.601-6 625, BT.1358 625, BT.1700 625 PAL, BT.1700 625 SECAM
Характеристики трансфера : BT.470-6 System B, BT.470-6 System G
Коэффициенты матрицы : BT.470-6 System B, BT.470-6 System G, BT.601-6 625, BT.1358 625, BT.1700 625 PAL, BT.1700 625 SECAM, IEC 61966-2-4 601

Аудио #1
Идентификатор : 2
Формат : AC-3
Формат/Информация : Audio Coding 3
Расширение режима : CM (complete main)
Идентификатор кодека : A_AC3
Продолжительность : 1 ч. 39 м.
Вид битрейта : Постоянный
Битрейт : 384 Кбит/сек
Канал(ы) : 6 канала(ов)
Расположение каналов : Front: L C R, Side: L R, LFE
Частота : 48,0 КГц
Битовая глубина : 16 бит
Метод сжатия : С потерями
Задержка видео : 517 мс.
Размер потока : 273 Мбайт (12%)
Язык : Russian

Аудио #2
Идентификатор : 3
Формат : AC-3
Формат/Информация : Audio Coding 3
Расширение режима : CM (complete main)
Идентификатор кодека : A_AC3
Продолжительность : 1 ч. 39 м.
Вид битрейта : Постоянный
Битрейт : 384 Кбит/сек
Канал(ы) : 6 канала(ов)
Расположение каналов : Front: L C R, Side: L R, LFE
Частота : 48,0 КГц
Битовая глубина : 16 бит
Метод сжатия : С потерями
Задержка видео : 519 мс.
Размер потока : 273 Мбайт (12%)
Заголовок : International
Язык : Finnish

Текст #1
Идентификатор : 4
Формат : UTF-8
Идентификатор кодека : S_TEXT/UTF8
Идентификатор кодека/Информация : UTF-8 Plain Text
Язык : Russian

Текст #2
Идентификатор : 5
Формат : UTF-8
Идентификатор кодека : S_TEXT/UTF8
Идентификатор кодека/Информация : UTF-8 Plain Text
Заголовок : International
Язык : Russian

Текст #3
Идентификатор : 6
Формат : UTF-8
Идентификатор кодека : S_TEXT/UTF8
Идентификатор кодека/Информация : UTF-8 Plain Text
Язык : English

Меню
00:00:00.000 : en:Chapter 1
00:10:20.920 : en:Chapter 2
00:15:03.520 : en:Chapter 3
00:21:14.920 : en:Chapter 4
00:29:10.720 : en:Chapter 5
00:33:50.920 : en:Chapter 6
00:39:57.520 : en:Chapter 7
00:53:31.120 : en:Chapter 8
00:57:06.520 : en:Chapter 9
01:00:33.520 : en:Chapter 10
01:06:27.520 : en:Chapter 11
01:10:37.120 : en:Chapter 12
01:16:23.320 : en:Chapter 13
01:18:21.520 : en:Chapter 14
01:21:46.720 : en:Chapter 15
01:33:43.120 : en:Chapter 16
01:35:31.120 : en:Chapter 17
01:37:06.520 : en:Chapter 18
Релиз от:



Скачать Кукушка.(Александр.Рогожкин).[2002.драма.военный.комедия.DVDRip-AVC].[Оригинал.Rus]+[International]+[Sub]x3.torrent без регистрации
Золото ЗОЛОТАЯ РАЗДАЧА! СКАЧАННОЕ НЕ ЗАСЧИТЫВАЕТСЯ! Золото
Дата: Зарегистрирован   [ Тип: внутренний ] Как тут cкачать?
MAGNET ссылка
MAGNET ссылка


Скачать .torrent

12 KB

Статус: проверено DHT
Скачан: торрент - 15 раз, раздача полностью - 2 раз
Размер: 2,22 GB
Оценка:  - (Голосов: 0)
Поблагодарили: 0
Поделиться ссылкой на эту раздачу с друзьями:
В контактеFacebookОдноклассникиTwitterLivejournalМой МирLiveinternet
 

 
Показать сообщения:    


Вы не можете начинать темы
Вы не можете отвечать на сообщения
Вы не можете редактировать свои сообщения
Вы не можете удалять свои сообщения
Вы не можете голосовать в опросах
Вы не можете прикреплять файлы к сообщениям
Вы можете скачивать файлы