Loading...
Error

Скачать Таинственная стена (Ирина Поволоцкая, Михаил Садкович) [1991, драма, комедия, SATRip-AVC] торрент без регистрации

Статистика раздачи
Размер:  1,6 GB   |    Скачан:  11 раз
Сидов:  1  [  0 KB/s  ]  
 
 
 
Автор Сообщение

Marsianka

[] 

Информация о фильме
Название: Таинственная стена
Год выхода: 1967
Жанр: драма, комедия
Режиссер: Ирина Поволоцкая, Михаил Садкович
В ролях: Лев Круглый, Татьяна Лаврова, Ираклий Учанейшвили, Андрей Миронов, Александр Кайдановский, Георгиос Совчис, Валентин Никулин, Евгений Шутов, Николай Бармин, Александр Жоржолиани, Юрий Леонидов, Георгий Тусузов, Виктор Сысоев, Елена Брацлавская, Михаил Орлов, Анатолий Яббаров

О фильме: Появившаяся в тайге туманная пелена притягивает внимание людей и вызывает видения из прошлого. Ученый Ломов, занимающийся исследованием таинственной стены, считает это явление посланием далекой цивилизации и ищет способы общения с нею. Но стена строптива, и каждая попытка ученого заканчивается новым поражением и новыми жертвами…



Страна: СССР
Студия: Мосфильм
Продолжительность: 01:14:42

Файл
Кодек: х264
Качество: SATRip-AVC
Видео: MPEG-4 AVC, 682x476@727x476, 25 fps, 2805 Кбит/с
Звук: AC3, 2 ch, 192 Кбит/с

Общее
Уникальный идентификатор : 234919630565348281132235347843881299322 (0xB0BBE006C05FC116BECA5FE40A62ED7A)
Полное имя : D:Таинственная стена_1967-SATRip-AVC.mkv
Формат : Matroska
Размер файла : 1,60 Гбайт
Продолжительность : 1 ч. 14 м.
Общий поток : 3057 Кбит/сек
Дата кодирования : UTC 2017-09-05 17:50:18
Программа кодирования : mkvmerge v5.8.0 ('No Sleep / Pillow') built on Sep 2 2012 15:37:04
Библиотека кодирования : libebml v1.2.3 + libmatroska v1.3.0

Видео
Идентификатор : 1
Формат : AVC
Формат/Информация : Advanced Video Codec
Профиль формата : High@L4.1
Параметр CABAC формата : Да
Параметр ReFrames формата : 16 кадры
Идентификатор кодека : V_MPEG4/ISO/AVC
Продолжительность : 1 ч. 14 м.
Битрейт : 2805 Кбит/сек
Ширина : 682 пикс.
Высота : 476 пикс.
Соотношение сторон : 3:2
Соотношение сторон в оригинале : 3:2
Частота кадров : 25,000 кадр/сек
Цветовое пространство : YUV
Подвыборка цветности : 4:2:0
Битовая глубина : 8 бит
Тип развёртки : Прогрессивная
Бит/(Пиксели*Кадры) : 0.346
Размер потока : 1,46 Гбайт (92%)
Библиотека кодирования : x264 core 148 r2744kMod b97ae06
Настройки программы : cabac=1 / ref=16 / deblock=1:-1:-1 / analyse=0x3:0x133 / me=umh / subme=10 / psy=1 / fade_compensate=0.00 / psy_rd=1.05:0.10 / mixed_ref=1 / me_range=32 / chroma_me=1 / trellis=2 / 8x8dct=1 / cqm=0 / deadzone=21,11 / fast_pskip=1 / chroma_qp_offset=-3 / threads=12 / lookahead_threads=3 / sliced_threads=0 / nr=0 / decimate=1 / interlaced=0 / bluray_compat=0 / constrained_intra=0 / bframes=10 / b_pyramid=2 / b_adapt=2 / b_bias=0 / direct=1 / weightb=1 / open_gop=0 / weightp=2 / keyint=250 / keyint_min=25 / scenecut=40 / intra_refresh=0 / rc=crf / mbtree=0 / crf=17.7000 / qcomp=0.63 / qpmin=0 / qpmax=39 / qpstep=4 / ip_ratio=1.40 / pb_ratio=1.30 / aq=1:1.00
Язык : English
Основные цвета : BT.470-6 System B, BT.470-6 System G, BT.601-6 625, BT.1358 625, BT.1700 625 PAL, BT.1700 625 SECAM
Характеристики трансфера : BT.470-6 System B, BT.470-6 System G
Коэффициенты матрицы : BT.470-6 System B, BT.470-6 System G, BT.601-6 625, BT.1358 625, BT.1700 625 PAL, BT.1700 625 SECAM, IEC 61966-2-4 601

Аудио
Идентификатор : 2
Формат : AC-3
Формат/Информация : Audio Coding 3
Расширение режима : CM (complete main)
Идентификатор кодека : A_AC3
Продолжительность : 1 ч. 14 м.
Вид битрейта : Постоянный
Битрейт : 192 Кбит/сек
Канал(ы) : 2 канала(ов)
Расположение каналов : Front: L R
Частота : 48,0 КГц
Битовая глубина : 16 бит
Метод сжатия : С потерями
Размер потока : 103 Мбайт (6%)
Язык : Russian
Релиз от:



Скачать Таинственная.стена.(Ирина.Поволоцкая.Михаил.Садкович).[1991.драма.комедия.SATRip-AVC].torrent без регистрации
Золото ЗОЛОТАЯ РАЗДАЧА! СКАЧАННОЕ НЕ ЗАСЧИТЫВАЕТСЯ! Золото
Дата: Зарегистрирован   [ Тип: внутренний ] Как тут cкачать?
MAGNET ссылка
MAGNET ссылка


Скачать .torrent

17 KB

Статус: проверено DHT
Скачан: торрент - 11 раз, раздача полностью - 2 раз
Размер: 1,6 GB
Оценка:  - (Голосов: 0)
Поблагодарили: 0
Поделиться ссылкой на эту раздачу с друзьями:
В контактеFacebookОдноклассникиTwitterLivejournalМой МирLiveinternet
 

 
Показать сообщения:    


Вы не можете начинать темы
Вы не можете отвечать на сообщения
Вы не можете редактировать свои сообщения
Вы не можете удалять свои сообщения
Вы не можете голосовать в опросах
Вы не можете прикреплять файлы к сообщениям
Вы можете скачивать файлы