Loading...
Error

Скачать Русская рулетка (Валерий Чиков) [1990, боевик, драма, криминал, DVDRip-AVC] торрент без регистрации

Статистика раздачи
Размер:  1,32 GB   |    Скачан:  19 раз
Сидов:  2  [  0 KB/s  ]  
 
 
 
Автор Сообщение

Marsianka

[] 

Информация о фильме
Название: Русская рулетка
Год выхода: 1990
Жанр: боевик, драма, криминал
Режиссер: Валерий Чиков
В ролях: Елена Яковлева, Денис Карасёв, Наталья Аринбасарова, Лев Борисов, Николай Бурляев, Анатолий Кузнецов, Римма Маркова, Валерий Виноградов (II), Сергей Воробьёв, Сергей Галкин, Юрий Мартынов, Андрей Николаев, Иосиф Рыклин, Владимир Сальников (II), Анна Фроловцева, Юрий Шерстнёв

О фильме: Герои авантюрной мелодрамы — прожигатели жизни Малышка и Стас — живут на свете не самым праведным образом. Прозрение приходит поздно, его цена оказывается слишком высока…



Страна: СССР
Студия: Мосфильм
Продолжительность: 01:18:21

Файл
Кодек: х264
Качество: DVDRip-AVC
Видео: MPEG-4 AVC, 696x564@742x564, 25 fps, 2222 Кбит/с
Звук: AC3, 1 ch, 192 Кбит/с

Общее
Уникальный идентификатор : 195919478396165352805330372897209076152 (0x9364B8113F99BA849F5FD43EEC0449B8)
Полное имя : D:Русская рулетка.1990.DVDRip-AVC.mkv
Формат : Matroska
Размер файла : 1,32 Гбайт
Продолжительность : 1 ч. 18 м.
Общий поток : 2416 Кбит/сек
Дата кодирования : UTC 2017-07-31 11:21:17
Программа кодирования : mkvmerge v5.8.0 ('No Sleep / Pillow') built on Sep 2 2012 15:37:04
Библиотека кодирования : libebml v1.2.3 + libmatroska v1.3.0

Видео
Идентификатор : 1
Формат : AVC
Формат/Информация : Advanced Video Codec
Профиль формата : High@L4.1
Параметр CABAC формата : Да
Параметр ReFrames формата : 14 кадры
Идентификатор кодека : V_MPEG4/ISO/AVC
Продолжительность : 1 ч. 18 м.
Битрейт : 2222 Кбит/сек
Ширина : 696 пикс.
Высота : 564 пикс.
Соотношение сторон : 4:3
Частота кадров : 25,000 кадр/сек
Цветовое пространство : YUV
Подвыборка цветности : 4:2:0
Битовая глубина : 8 бит
Тип развёртки : Прогрессивная
Бит/(Пиксели*Кадры) : 0.226
Размер потока : 1,19 Гбайт (90%)
Библиотека кодирования : x264 core 148 r2744kMod b97ae06
Настройки программы : cabac=1 / ref=14 / deblock=1:-2:-1 / analyse=0x3:0x133 / me=umh / subme=10 / psy=1 / fade_compensate=0.00 / psy_rd=1.05:0.10 / mixed_ref=1 / me_range=32 / chroma_me=1 / trellis=2 / 8x8dct=1 / cqm=0 / deadzone=21,11 / fast_pskip=0 / chroma_qp_offset=-3 / threads=3 / lookahead_threads=1 / sliced_threads=0 / nr=0 / decimate=0 / interlaced=0 / bluray_compat=0 / constrained_intra=0 / bframes=12 / b_pyramid=2 / b_adapt=2 / b_bias=0 / direct=3 / weightb=1 / open_gop=0 / weightp=2 / keyint=250 / keyint_min=25 / scenecut=40 / intra_refresh=0 / rc=2pass / mbtree=0 / bitrate=2222 / ratetol=1.0 / qcomp=0.63 / qpmin=0 / qpmax=39 / qpstep=4 / cplxblur=20.0 / qblur=0.5 / ip_ratio=1.25 / pb_ratio=1.30 / aq=2:0.90
Язык : English
Основные цвета : BT.470-6 System B, BT.470-6 System G, BT.601-6 625, BT.1358 625, BT.1700 625 PAL, BT.1700 625 SECAM
Характеристики трансфера : BT.470-6 System B, BT.470-6 System G
Коэффициенты матрицы : BT.470-6 System B, BT.470-6 System G, BT.601-6 625, BT.1358 625, BT.1700 625 PAL, BT.1700 625 SECAM, IEC 61966-2-4 601

Аудио
Идентификатор : 2
Формат : AC-3
Формат/Информация : Audio Coding 3
Расширение режима : CM (complete main)
Идентификатор кодека : A_AC3
Продолжительность : 1 ч. 18 м.
Вид битрейта : Постоянный
Битрейт : 192 Кбит/сек
Канал(ы) : 1 канал
Расположение каналов : Front: C
Частота : 48,0 КГц
Битовая глубина : 16 бит
Метод сжатия : С потерями
Размер потока : 108 Мбайт (8%)
Релиз от:



Скачать Русская.рулетка.(Валерий.Чиков).[1990.боевик.драма.криминал.DVDRip-AVC].torrent без регистрации
Золото ЗОЛОТАЯ РАЗДАЧА! СКАЧАННОЕ НЕ ЗАСЧИТЫВАЕТСЯ! Золото
Дата: Зарегистрирован   [ Тип: внешний ] Как тут cкачать?
MAGNET ссылка
MAGNET ссылка


Скачать .torrent

14 KB

Статус: проверено DHT
Скачан: торрент - 19 раз, раздача полностью - 18 раз
Размер: 1,32 GB
Оценка:  - (Голосов: 0)
Поблагодарили: 1
Поделиться ссылкой на эту раздачу с друзьями:
В контактеFacebookОдноклассникиTwitterLivejournalМой МирLiveinternet
 

 
Показать сообщения:    


Вы не можете начинать темы
Вы не можете отвечать на сообщения
Вы не можете редактировать свои сообщения
Вы не можете удалять свои сообщения
Вы не можете голосовать в опросах
Вы не можете прикреплять файлы к сообщениям
Вы можете скачивать файлы