Loading...
Error

Скачать Патруль времени / Timecop (Питер Хайамс) [1994, фантастика, боевик, триллер, мелодрама, BDRip] [720p] [MVO]x5+[AVO]x4+[VO]+[Eng]+[Sub]x5 торрент без регистрации

Статистика раздачи
Размер:  8 GB   |    Скачан:  7 раз
Сидов:  1  [  0 KB/s  ]  
 
 
 
Автор Сообщение

Marsianka

[] 

Патруль времени
| Timecop |


Информация о фильме
Название: Патруль времени
Оригинальное название: Timecop
Год выхода: 1994
Жанр: фантастика, боевик, триллер, мелодрама
Режиссер: Питер Хайамс
В ролях: Жан-Клод Ван Дамм, Миа Сара, Рон Сильвер, Брюс МакГилл, Глория Рубен, Скотт Беллис, Джейсон Шомбинг, Скотт Лоуренс, Кеннет Уэлш, Брент Вулси, Брэд Лори, Шэйн Келли, Ричард Фараси, Стивен Ламберт, Кевин МакНалти, Дж.Дж. Макаро, Ив Камерон, Дэвид Джэкокс, Майк Митчелл, Джейкоб Рапп, Шон О’Бирн, Габриель Роз, Малкольм Стюарт, Альфонсо Квиджада, Ивет Фергюсон, Глен Ролд, Теодор Томас, Лон Кацман, Дункан Фрайзер, Тони Морелли, Ник Хайамс, Келли Фокс, Памела Мартин, Том МакБет, Фрэнк Кассини

О фильме:
Передвижения во времени породили новый тип преступлений. Можно изменять события прошлого, контролировать финансовые рынки и даже уничтожать целые народы. Правительство США создает специальное полицейское подразделение — патруль времени. Продажный сенатор, рвущийся к президентскому креслу, отправляется в прошлое, чтобы изменить ход истории. Вслед за ним отправляется полицейский Макс Уокер. Его ждет не только смертельная опасность, но и сильнейшее искушение, ведь, попав в прошлое, он может предотвратить смерть любимой жены…



Страна: Канада, США, Япония
Студия: Dark Horse Entertainment, JVC Entertainment, Largo Entertainment, Largo International N.V., Renaissance Pictures
Продолжительность: 01:37:55
Перевод: Профессиональный многоголосый, авторский, любительский одноголосый

Файл
Кодек: h.264
Качество: BDRip 720p
Видео: 4025 Кбит/с, 1280x542, 23.976 кадр/с

• №1: Русский (AC3, 6 ch, 640 Кбит/с) Профессиональный многоголосый (Superbit)
• №2: Русский (AC3, 6 ch, 640 Кбит/с) Авторский одноголосый (Андрей Гаврилов)
• №3: Русский (AC3, 2 ch, 224 Кбит/с) Профессиональный многоголосый (СТС)
• №4: Русский (AC3, 2 ch, 224 Кбит/с) Профессиональный многоголосый (ТК "Россия" / ТНТ)
• №5: Русский (AC3, 2 ch, 192 Кбит/с) Авторский одноголосый (Юрий Живов)
• №6: Русский (AC3, 2 ch, 192 Кбит/с) Авторский одноголосый (Сергей Визгунов)
• №7: Русский (AC3, 2 ch, 192 Кбит/с) Любительский одноголосый (младоКашкин)
• №8: Украинский (AC3, 2 ch, 192 Кбит/с) Профессиональный многоголосый (2+2)
• №9: Английский (AC3, 6 ch, 640 Кбит/с)
Отдельно:
• №10: Русский (DTS, 6 ch, 1509 Кбит/с) Профессиональный многоголосый (Superbit)
• №11: Русский (DTS, 6 ch, 1509 Кбит/с) Авторский одноголосый (Андрей Гаврилов)
• №12: Английский (DTS, 6 ch, 1509 Кбит/с)

Субтитры:
• №1: Русские (форсированные)
• №2: Русские (полные)
• №3: Русские (SDH)
• №4: Английские (полные)
• №5: Английские (SDH)

За исходник спасибо Прагматику:
• Дороги 1 и 2 получены микшированием чистого/выделенного голоса с центром оригинала.
• За дорожку С.Визгунова спасибо - Keynol, Ю.Живова - cinemasonar, МладоКашкина - Stepanenko.P.V.
• Дорожка младоКашкина не до конца, 01:30:19,13 - 01:33:44,29 добита Гавриловым.
• За украинскую дорогу спасибо трекеру Гуртом.
• P.S. с бродившим ранее по сети блюэбёрдовским творением ничего общего не имеет: Superbit выделен идеально, Гаврилов с качественного исходника, ну и собраны естественно нормально.

-------------------------------------------------------------------
x264 [info]: frame I:1182 Avg QP:14.51 size: 85755
x264 [info]: frame P:32624 Avg QP:17.21 size: 37697
x264 [info]: frame B:107051 Avg QP:18.91 size: 15161
x264 [info]: consecutive B-frames: 3.2% 4.4% 8.1% 22.8% 15.4% 33.9% 5.0% 3.2% 1.3% 1.4% 0.6% 0.8%
-------------------------------------------------------------------

Полное имя : Timecop.1994.x264.BDRip.720p.0ptimus.mkv
Формат : Matroska
Версия формата : Version 2
Размер файла : 4,90 Гбайт
Продолжительность : 1 ч. 37 м.
Общий поток : 7163 Кбит/сек
Название фильма : Патруль времени | Timecop [1994] -= BDRip (720p) by 0ptimus =-
Дата кодирования : UTC 2014-08-27 11:24:02
Программа кодирования : mkvmerge v6.6.0 ('The Edge Of The In Between') built on Dec 1 2013 17:55:00
Библиотека кодирования : libebml v1.3.0 + libmatroska v1.4.1

Видео
Идентификатор : 1
Формат : AVC
Формат/Информация : Advanced Video Codec
Профиль формата : High@L4.1
Параметр CABAC формата : Да
Параметр ReFrames формата : 9 кадров
Идентификатор кодека : V_MPEG4/ISO/AVC
Продолжительность : 1 ч. 37 м.
Битрейт : 4025 Кбит/сек
Ширина : 1280 пикселей
Высота : 542 пикселя
Соотношение сторон : 2,35:1
Режим частоты кадров : Постоянный
Частота кадров : 23,976 кадра/сек
Цветовое пространство : YUV
Субдискретизация насыщенности : 4:2:0
Битовая глубина : 8 бит
Тип развёртки : Прогрессивная
Бит/(Пиксели*Кадры) : 0.242
Размер потока : 2,66 Гбайт (54%)
Заголовок : Rip by 0ptimus
Библиотека кодирования : x264 core 133 r2334 a3ac64b
Настройки программы : cabac=1 / ref=9 / deblock=1:-3:-3 / analyse=0x3:0x113 / me=umh / subme=11 / psy=1 / psy_rd=1.00:0.20 / mixed_ref=1 / me_range=48 / chroma_me=1 / trellis=2 / 8x8dct=1 / cqm=0 / deadzone=21,11 / fast_pskip=0 / chroma_qp_offset=-3 / threads=4 / lookahead_threads=1 / sliced_threads=0 / nr=0 / decimate=0 / interlaced=0 / bluray_compat=0 / constrained_intra=0 / bframes=11 / b_pyramid=2 / b_adapt=2 / b_bias=0 / direct=3 / weightb=1 / open_gop=0 / weightp=2 / keyint=240 / keyint_min=23 / scenecut=40 / intra_refresh=0 / rc_lookahead=40 / rc=2pass / mbtree=0 / bitrate=4025 / ratetol=1.0 / qcomp=0.60 / qpmin=0 / qpmax=69 / qpstep=4 / cplxblur=20.0 / qblur=0.5 / vbv_maxrate=50000 / vbv_bufsize=50000 / nal_hrd=none / ip_ratio=1.40 / pb_ratio=1.30 / aq=1:1.00
Язык : English
Default : Да
Forced : Да

Аудио #1
Идентификатор : 2
Формат : AC-3
Формат/Информация : Audio Coding 3
Расширение режима : CM (complete main)
Параметр Endianness формата : Big
Идентификатор кодека : A_AC3
Продолжительность : 1 ч. 37 м.
Вид битрейта : Постоянный
Битрейт : 640 Кбит/сек
Каналы : 6 каналов
Расположение каналов : Front: L C R, Side: L R, LFE
Частота : 48,0 КГц
Битовая глубина : 16 бит
Метод сжатия : С потерями
Размер потока : 448 Мбайт (9%)
Заголовок : Многоголосый [Superbit] AC3 5.1 @ 640 kbps
Язык : Russian
Default : Да
Forced : Да

Аудио #2
Идентификатор : 3
Формат : AC-3
Формат/Информация : Audio Coding 3
Расширение режима : CM (complete main)
Параметр Endianness формата : Big
Идентификатор кодека : A_AC3
Продолжительность : 1 ч. 37 м.
Вид битрейта : Постоянный
Битрейт : 640 Кбит/сек
Каналы : 6 каналов
Расположение каналов : Front: L C R, Side: L R, LFE
Частота : 48,0 КГц
Битовая глубина : 16 бит
Метод сжатия : С потерями
Размер потока : 448 Мбайт (9%)
Заголовок : Авторский [Андрей Гаврилов] AC3 5.1 @ 640 kbps
Язык : Russian
Default : Нет
Forced : Нет

Аудио #3
Идентификатор : 4
Формат : AC-3
Формат/Информация : Audio Coding 3
Расширение режима : CM (complete main)
Параметр Endianness формата : Big
Идентификатор кодека : A_AC3
Продолжительность : 1 ч. 37 м.
Вид битрейта : Постоянный
Битрейт : 224 Кбит/сек
Каналы : 2 канала
Расположение каналов : Front: L R
Частота : 48,0 КГц
Битовая глубина : 16 бит
Метод сжатия : С потерями
Размер потока : 157 Мбайт (3%)
Заголовок : Многоголосый [СТС] AC3 2.0 @ 224 kbps
Язык : Russian
Default : Нет
Forced : Нет

Аудио #4
Идентификатор : 5
Формат : AC-3
Формат/Информация : Audio Coding 3
Расширение режима : CM (complete main)
Параметр Endianness формата : Big
Идентификатор кодека : A_AC3
Продолжительность : 1 ч. 37 м.
Вид битрейта : Постоянный
Битрейт : 224 Кбит/сек
Каналы : 2 канала
Расположение каналов : Front: L R
Частота : 48,0 КГц
Битовая глубина : 16 бит
Метод сжатия : С потерями
Размер потока : 157 Мбайт (3%)
Заголовок : Многоголосый [ТНТ] AC3 2.0 @ 224 kbps
Язык : Russian
Default : Нет
Forced : Нет

Аудио #5
Идентификатор : 6
Формат : AC-3
Формат/Информация : Audio Coding 3
Расширение режима : CM (complete main)
Параметр Endianness формата : Big
Идентификатор кодека : A_AC3
Продолжительность : 1 ч. 37 м.
Вид битрейта : Постоянный
Битрейт : 192 Кбит/сек
Каналы : 2 канала
Расположение каналов : Front: L R
Частота : 48,0 КГц
Битовая глубина : 16 бит
Метод сжатия : С потерями
Размер потока : 134 Мбайт (3%)
Заголовок : Авторский [Юрий Живов] AC3 2.0 @ 192 kbps
Язык : Russian
Default : Нет
Forced : Нет

Аудио #6
Идентификатор : 7
Формат : AC-3
Формат/Информация : Audio Coding 3
Расширение режима : CM (complete main)
Параметр Endianness формата : Big
Идентификатор кодека : A_AC3
Продолжительность : 1 ч. 37 м.
Вид битрейта : Постоянный
Битрейт : 192 Кбит/сек
Каналы : 2 канала
Расположение каналов : Front: L R
Частота : 48,0 КГц
Битовая глубина : 16 бит
Метод сжатия : С потерями
Размер потока : 134 Мбайт (3%)
Заголовок : Авторский [Сергей Визгунов] AC3 2.0 @ 192 kbps
Язык : Russian
Default : Нет
Forced : Нет

Аудио #7
Идентификатор : 8
Формат : AC-3
Формат/Информация : Audio Coding 3
Расширение режима : CM (complete main)
Параметр Endianness формата : Big
Идентификатор кодека : A_AC3
Продолжительность : 1 ч. 37 м.
Вид битрейта : Постоянный
Битрейт : 192 Кбит/сек
Каналы : 2 канала
Расположение каналов : Front: L R
Частота : 48,0 КГц
Битовая глубина : 16 бит
Метод сжатия : С потерями
Размер потока : 134 Мбайт (3%)
Заголовок : Любительский [младоКашкин] AC3 2.0 @ 192 kbps
Язык : Russian
Default : Нет
Forced : Нет

Аудио #8
Идентификатор : 9
Формат : AC-3
Формат/Информация : Audio Coding 3
Расширение режима : CM (complete main)
Параметр Endianness формата : Big
Идентификатор кодека : A_AC3
Продолжительность : 1 ч. 37 м.
Вид битрейта : Постоянный
Битрейт : 192 Кбит/сек
Каналы : 2 канала
Расположение каналов : Front: L R
Частота : 48,0 КГц
Битовая глубина : 16 бит
Метод сжатия : С потерями
Размер потока : 134 Мбайт (3%)
Заголовок : Многоголосый [2+2] AC3 2.0 @ 192 kbps
Язык : Ukrainian
Default : Нет
Forced : Нет

Аудио #9
Идентификатор : 10
Формат : AC-3
Формат/Информация : Audio Coding 3
Расширение режима : CM (complete main)
Параметр Endianness формата : Big
Идентификатор кодека : A_AC3
Продолжительность : 1 ч. 37 м.
Вид битрейта : Постоянный
Битрейт : 640 Кбит/сек
Каналы : 6 каналов
Расположение каналов : Front: L C R, Side: L R, LFE
Частота : 48,0 КГц
Битовая глубина : 16 бит
Метод сжатия : С потерями
Размер потока : 448 Мбайт (9%)
Заголовок : AC3 5.1 @ 640 kbps
Язык : English
Default : Нет
Forced : Нет

Текст #1
Идентификатор : 11
Формат : UTF-8
Идентификатор кодека : S_TEXT/UTF8
Идентификатор кодека/Информация : UTF-8 Plain Text
Заголовок : Форсированные
Язык : Russian
Default : Да
Forced : Да

Текст #2
Идентификатор : 12
Формат : UTF-8
Идентификатор кодека : S_TEXT/UTF8
Идентификатор кодека/Информация : UTF-8 Plain Text
Язык : Russian
Default : Нет
Forced : Нет

Текст #3
Идентификатор : 13
Формат : UTF-8
Идентификатор кодека : S_TEXT/UTF8
Идентификатор кодека/Информация : UTF-8 Plain Text
Заголовок : SDH
Язык : Russian
Default : Нет
Forced : Нет

Текст #4
Идентификатор : 14
Формат : UTF-8
Идентификатор кодека : S_TEXT/UTF8
Идентификатор кодека/Информация : UTF-8 Plain Text
Язык : English
Default : Нет
Forced : Нет

Текст #5
Идентификатор : 15
Формат : UTF-8
Идентификатор кодека : S_TEXT/UTF8
Идентификатор кодека/Информация : UTF-8 Plain Text
Заголовок : SDH
Язык : English
Default : Нет
Forced : Нет

Меню
00:00:00.000 : en:Main Titles: Gainsville, GA 1863
00:07:51.053 : en:There's Never Enough Time..
00:13:25.221 : en:Ruin in the Rain
00:15:39.271 : en:Wall Street October 30, 1929
00:22:49.534 : en:Justice in Time
00:24:07.863 : en:Trouble with the T.E.C.
00:34:07.086 : en:Killers for Company
00:39:00.588 : en:A Blast to the Past
00:43:38.240 : en:Back to 1994
00:47:14.790 : en:McComb's Future
01:01:00.156 : en:The Only Way Back
01:07:07.398 : en:The Fugitive From the Future
01:14:08.902 : en:A Fight for the Future
01:26:11.416 : en:McComb Gets Tougher
01:29:40.083 : en:The New Future
01:33:24.056 : en:"Time Won't Let Me"
01:37:47.862 : en:
Релиз от:



Скачать Патруль.времени.Timecop.(Питер.Хайамс).[1994.фантастика.боевик.триллер.мелодрама.BDRip].[720p].[MVO]x5+[AVO]x4+[VO]+[Eng]+[Sub]x5.torrent без регистрации
Золото ЗОЛОТАЯ РАЗДАЧА! СКАЧАННОЕ НЕ ЗАСЧИТЫВАЕТСЯ! Золото
Дата: Зарегистрирован   [ Тип: внутренний ] Как тут cкачать?
MAGNET ссылка
MAGNET ссылка


Скачать .torrent

42 KB

Статус: проверено DHT
Скачан: торрент - 7 раз, раздача полностью - 0 раз
Размер: 8 GB
Оценка:  - (Голосов: 0)
Поблагодарили: 0
Поделиться ссылкой на эту раздачу с друзьями:
В контактеFacebookОдноклассникиTwitterLivejournalМой МирLiveinternet
 

 
Показать сообщения:    


Вы не можете начинать темы
Вы не можете отвечать на сообщения
Вы не можете редактировать свои сообщения
Вы не можете удалять свои сообщения
Вы не можете голосовать в опросах
Вы не можете прикреплять файлы к сообщениям
Вы можете скачивать файлы