Loading...
Error

Скачать Подлый Пит / Sneaky Pete (Сезон 02) (Сет Гордон) [2018, драма, криминал, WEBRip] [720p] [MVO] (LostFilm) торрент без регистрации

Статистика раздачи
Размер:  15,36 GB   |    Скачан:  163 раза
Сидов:  1  [  0 KB/s  ]  
 
 
 
Автор Сообщение

leon030982

[] 

Подлый Пит / Sneaky Pete

Год выхода: 2018
Жанр: драма, криминал
Страна: США
Продолжительность: ~00:50:00
Перевод: Профессиональный (многоголосый, закадровый) LostFilm
Субтитры: Отсутствуют

Режиссер: Сет Гордон

В ролях: Джованни Рибизи, Марин Айрлэнд, Марго Мартиндейл, Шэйн МакРей, Либэ Барер, Питер Герети, Итэн Эмбри, Доменик Ломбардоззи, Дебра Монк, Майкл Дрэйер..

О фильме: По сюжету молодой мошенник Пит, отсидев положенный срок, решает завязать с тёмным прошлым, примерив на себя личину бывшего сокамерника. Скрываясь от местной мафии, парень пристраивается в семейный бизнес того самого сокамерника. Со временем он осознает, что такое настоящая семья, и даже обретёт любовь всей своей жизни, но прошлые грехи не позволят ему расслабиться ни на минуту, угрожая уничтожить и главного героя, и его новую жизнь.



Файл
Качество: WEBRip 720p
Формат: MKV
Видео кодек: AVC
Аудио кодек: AC3
Видео: MPEG-4 AVC, ~ 4000 Кбит/с, 1280x720, 23.976 fps
Аудио Rus: 48 kHz, AAC, 2 ch, ~288.00 kbps

Добавлена 9-10-я серия!
Внимание! Раздача ведётся путём добавления новых серий; при каждом добавлении создаётся новый торрент. Чтобы начать докачку новой серии, пользователям необходимо сделать следующее:
(1) остановить скачивание,
(2) удалить старый торрент у себя из клиента (старые серии удалять не надо),
(3) скачать новый торрент и запустить его у себя в клиенте вместо старого, при этом указать клиенту путь в старую папку куда и должно происходить скачивание новых серий.

Ваш клиент при этом должен произвести хеширование (проверку) старой папки (если не производит сам - помогите ему сделать это), и будет докачивать только те серии которых у вас ещё нет. Старые серии при этом не удаляются, а продолжают раздаваться!

Eсли вы уже удалили старые серии, то предотвратить повторную закачку старых серий можно, отжав галочку в соответсвующих местах при запуске нового торрента. По возможности, желательно не удалять старые серии как можно дольше чтобы релизёр не столько продолжал раздавать старые серии, а смог сконцентрироваться на новых.
General
Complete name : E:\Sneaky.Pete.S02.720p.WEB.rus.LostFilm.TV\Sneaky.Pete.S02E01.720p.WEB.rus.LostFilm.TV.mp4
Format : MPEG-4
Format profile : Base Media
Codec ID : isom (isom)
File size : 1.62 GiB
Duration : 54 min 7 s
Overall bit rate mode : Variable
Overall bit rate : 4 291 kb/s
Collection : Подлый Пит
Season : 2
Album : Подлый Пит, Сезон 2
Album/Performer : Подлый Пит
Part : 1
Part/Position : 2
Track name : Зловещая тайна номера в отеле
Track name/Position : 1
Performer : Подлый Пит
Genre : Drama
ContentType : TV Show
Recorded date : 2018
Encoded date : UTC 2018-03-11 20:54:51
Tagged date : UTC 2018-03-11 20:54:51
Writing application : Yamb 2.1.0.0 [http://yamb.unite-video.com] / LostCoder
Copyright : LostFilm.TV (c)
Cover : Yes
Comment : Ловкий мошенник Мариус Йосипович, спит и видит, как закончится срок его заключения. Но вскоре оказывается, что в тюрьме ему безопаснее, чем на воле.
Part_ID : 201

Video
ID : 1
Format : AVC
Format/Info : Advanced Video Codec
Format profile : High@L4.1
Format settings : CABAC / 4 Ref Frames
Format settings, CABAC : Yes
Format settings, RefFrames : 4 frames
Codec ID : avc1
Codec ID/Info : Advanced Video Coding
Duration : 54 min 7 s
Bit rate : 4 000 kb/s
Maximum bit rate : 13.6 Mb/s
Width : 1 280 pixels
Height : 720 pixels
Display aspect ratio : 16:9
Frame rate mode : Constant
Frame rate : 23.976 (24000/1001) FPS
Original frame rate : 23.976 (23976/1000) FPS
Color space : YUV
Chroma subsampling : 4:2:0
Bit depth : 8 bits
Scan type : Progressive
Bits/(Pixel*Frame) : 0.181
Stream size : 1.51 GiB (93%)
Title : Imported with GPAC 0.4.6-DEV (internal rev. 5)
Writing library : x264 core 112 r1834 a51816a
Encoding settings : cabac=1 / ref=4 / deblock=1:-3:-2 / analyse=0x3:0x113 / me=hex / subme=7 / psy=1 / psy_rd=1.00:0.00 / mixed_ref=1 / me_range=16 / chroma_me=1 / trellis=1 / 8x8dct=1 / cqm=0 / deadzone=21,11 / fast_pskip=1 / chroma_qp_offset=-2 / threads=6 / sliced_threads=0 / nr=0 / decimate=1 / interlaced=0 / constrained_intra=0 / bframes=5 / b_pyramid=2 / b_adapt=1 / b_bias=0 / direct=1 / weightb=1 / open_gop=0 / weightp=2 / keyint=250 / keyint_min=25 / scenecut=40 / intra_refresh=0 / rc_lookahead=40 / rc=2pass / mbtree=1 / bitrate=4000 / ratetol=1.0 / qcomp=0.60 / qpmin=0 / qpmax=51 / qpstep=4 / cplxblur=20.0 / qblur=0.5 / vbv_maxrate=10000 / vbv_bufsize=256000 / ip_ratio=1.40 / aq=1:1.00 / nal_hrd=none
Encoded date : UTC 2018-03-09 05:19:06
Tagged date : UTC 2018-03-11 20:56:33

Audio
ID : 2
Format : AAC
Format/Info : Advanced Audio Codec
Format profile : LC
Codec ID : mp4a-40-2
Duration : 54 min 7 s
Bit rate mode : Variable
Bit rate : 288 kb/s
Maximum bit rate : 354 kb/s
Channel(s) : 2 channels
Channel positions : Front: L R
Sampling rate : 48.0 kHz
Frame rate : 46.875 FPS (1024 SPF)
Compression mode : Lossy
Stream size : 111 MiB (7%)
Encoded date : UTC 2018-03-11 20:56:27
Tagged date : UTC 2018-03-11 20:56:33



Скачать Подлый.Пит.Sneaky.Pete.(Сезон.02).(Сет.Гордон).[2018.драма.криминал.WEBRip].[720p].[MVO].(LostFilm).torrent без регистрации
Золото ЗОЛОТАЯ РАЗДАЧА! СКАЧАННОЕ НЕ ЗАСЧИТЫВАЕТСЯ! Золото
Дата: Зарегистрирован   [ Тип: внутренний ] Как тут cкачать?
MAGNET ссылка
MAGNET ссылка


Скачать .torrent

78 KB

Статус: проверено DHT
Скачан: торрент - 163 раз, раздача полностью - 1 раз
Размер: 15,36 GB
Оценка:  - (Голосов: 0)
Поблагодарили: 1
Поделиться ссылкой на эту раздачу с друзьями:
В контактеFacebookОдноклассникиTwitterLivejournalМой МирLiveinternet
 

 
Показать сообщения:    


Вы не можете начинать темы
Вы не можете отвечать на сообщения
Вы не можете редактировать свои сообщения
Вы не можете удалять свои сообщения
Вы не можете голосовать в опросах
Вы не можете прикреплять файлы к сообщениям
Вы можете скачивать файлы