Loading...
Error

Скачать По ту сторону / Визави / Counterpart (Сезон 01) (Алик Сахаров, Мортен Тильдум) [2018, Триллер, научная фантастика, WEB-DL] [720p] [DVO] (Кубик в Кубе) торрент без регистрации

Статистика раздачи
Размер:  12,01 GB   |    Скачан:  97 раз
Сидов:  1  [  0 KB/s  ]  
 
 
 
Автор Сообщение

leon030982

[] 

По ту сторону / Визави
Counterpart

Год выпуска: 2018
Страна: США
Жанр: Триллер, научная фантастика
Продолжительность: ~00:55:00
Перевод: Профессиональный (двухголосый закадровый) [Кубик в Кубе]

Режиссёр: Алик Сахаров, Мортен Тильду

В ролях: Дж. К. Симмонс — Говард Силк, Оливия Уильямс — Эмили Бёртон Силк, жена Говарда, Гарри Ллойд — Питер Куайл, директор в агентстве Говарда, Сара Серайокко — Болдуин, таинственный убийца, Ульрих Томсен — Олдрич, закалённый директор по операциям в агентстве Говарда, Мидо Хамада — Сайрус, офицер агентства «по ту сторону», который является правой рукой Олдрича, Назанин Бониади — Клэр, загадочная молодая женщина с любопытным прошлым, которая становится ключевой фигурой всех событий, Николас Пиннок — Иэн Шоу, воинственный оперативник и наблюдатель, Джейми Бамбер — Эрик, деверь Говарда

Описание: Шпионский фантастический триллер с метафизической составляющей — рассказывает про Говарда Силка (Симмонс), скромного служащего бюрократической агентства ООН. Силк обнаруживает, что это агентство охраняет секрет перехода в параллельное измерение. С помощью Говарда и его „коллеги“ с «другой стороны», Прайма, шоу будет затрагивать темы личности, идеализма, потерянной любви и «а что, если…».





Работа со звуком: messafan

Качество: WEB-DL 720p
Формат: MKV
Видео: 1280x720 at 23.976 fps, MPEG-4 AVC, ~2000 kbps avg
Аудио Rus: 48 kHz, AC3, 3/2 (L,C,R,l,r) + LFE ch, ~640.00 kbps avg |KvK|
Аудио Eng: 48 kHz, AC3, 3/2 (L,C,R,l,r) + LFE ch, ~640.00 kbps avg
Субтитры: English
General
Unique ID : 199346363842870809377571149356266680447 (0x95F8B69089A49AA193AD9A2F3DDBF07F)
Complete name : E:\Counterpart.S01.720p.WEB.CasStudio.TV\Counterpart.S01E01.The.Crossing.720p.WEB-DL.KvK.CasStudio.TV.mkv
Format : Matroska
Format version : Version 4 / Version 2
File size : 1.26 GiB
Duration : 56 min 37 s
Overall bit rate mode : Variable
Overall bit rate : 3 186 kb/s
Movie name : Counterpart 01x01 (The Crossing) - release by messafan for CasStudio.TV
Encoded date : UTC 2018-01-31 16:55:25
Writing application : mkvmerge v6.7.0 ('Back to the Ground') 64bit built on Jan 8 2014 15:10:52
Writing library : libebml v1.3.0 + libmatroska v1.4.1

Video
ID : 1
Format : AVC
Format/Info : Advanced Video Codec
Format profile : High@L3.1
Format settings : CABAC / 5 Ref Frames
Format settings, CABAC : Yes
Format settings, RefFrames : 5 frames
Codec ID : V_MPEG4/ISO/AVC
Duration : 56 min 37 s
Bit rate mode : Variable
Bit rate : 1 843 kb/s
Maximum bit rate : 4 500 kb/s
Width : 1 280 pixels
Height : 720 pixels
Display aspect ratio : 16:9
Frame rate mode : Constant
Frame rate : 23.976 (24000/1001) FPS
Color space : YUV
Chroma subsampling : 4:2:0
Bit depth : 8 bits
Scan type : Progressive
Bits/(Pixel*Frame) : 0.083
Stream size : 746 MiB (58%)
Language : English
Default : Yes
Forced : No
Color range : Limited
Color primaries : BT.709
Transfer characteristics : BT.709
Matrix coefficients : BT.709

Audio #1
ID : 2
Format : AC-3
Format/Info : Audio Coding 3
Format settings, Endianness : Big
Codec ID : A_AC3
Duration : 56 min 37 s
Bit rate mode : Constant
Bit rate : 640 kb/s
Channel(s) : 6 channels
Channel positions : Front: L C R, Side: L R, LFE
Sampling rate : 48.0 kHz
Frame rate : 31.250 FPS (1536 SPF)
Bit depth : 16 bits
Compression mode : Lossy
Stream size : 259 MiB (20%)
Title : KvK DD5.1 @ 640kbps
Language : Russian
Service kind : Complete Main
Default : No
Forced : No

Audio #2
ID : 3
Format : AC-3
Format/Info : Audio Coding 3
Format settings, Endianness : Big
Codec ID : A_AC3
Duration : 56 min 37 s
Bit rate mode : Constant
Bit rate : 640 kb/s
Channel(s) : 6 channels
Channel positions : Front: L C R, Side: L R, LFE
Sampling rate : 48.0 kHz
Frame rate : 31.250 FPS (1536 SPF)
Bit depth : 16 bits
Compression mode : Lossy
Stream size : 259 MiB (20%)
Title : English DD5.1 @ 640kbps
Language : English
Service kind : Complete Main
Default : Yes
Forced : No

Text
ID : 4
Format : UTF-8
Codec ID : S_TEXT/UTF8
Codec ID/Info : UTF-8 Plain Text
Title : Eng sub
Language : English
Default : No
Forced : No
Внимание! Раздача ведётся путём добавления новых серий; при каждом добавлении создаётся новый торрент. Чтобы начать докачку новой серии, пользователям необходимо сделать следующее:
(1) остановить скачивание,
(2) удалить старый торрент у себя из клиента (старые серии удалять не надо),
(3) скачать новый торрент и запустить его у себя в клиенте вместо старого, при этом указать клиенту путь в старую папку куда и должно происходить скачивание новых серий.

Ваш клиент при этом должен произвести хеширование (проверку) старой папки (если не производит сам - помогите ему сделать это), и будет докачивать только те серии которых у вас ещё нет. Старые серии при этом не удаляются, а продолжают раздаваться!

Eсли вы уже удалили старые серии, то предотвратить повторную закачку старых серий можно, отжав галочку в соответствующих местах при запуске нового торрента. По возможности, желательно не удалять старые серии как можно дольше, чтобы релизёр не столько продолжал раздавать старые серии, а смог сконцентрироваться на новых.



Скачать По.ту.сторону.Визави.Counterpart.(Сезон.01).(Алик.Сахаров.Мортен.Тильдум).[2018.Триллер.научная.фантастика.WEB-DL].[720p].[DVO].(Кубик.в.Кубе).torrent без регистрации
Золото ЗОЛОТАЯ РАЗДАЧА! СКАЧАННОЕ НЕ ЗАСЧИТЫВАЕТСЯ! Золото
Дата: Зарегистрирован   [ Тип: внутренний ] Как тут cкачать?
MAGNET ссылка
MAGNET ссылка


Скачать .torrent

62 KB

Статус: проверено DHT
Скачан: торрент - 97 раз, раздача полностью - 12 раз
Размер: 12,01 GB
Оценка:  - (Голосов: 0)
Поблагодарили: 0
Поделиться ссылкой на эту раздачу с друзьями:
В контактеFacebookОдноклассникиTwitterLivejournalМой МирLiveinternet
 

 
Показать сообщения:    


Вы не можете начинать темы
Вы не можете отвечать на сообщения
Вы не можете редактировать свои сообщения
Вы не можете удалять свои сообщения
Вы не можете голосовать в опросах
Вы не можете прикреплять файлы к сообщениям
Вы можете скачивать файлы