Loading...
Error

Скачать Стать мужчиной в Сибири / Becoming a Man in Siberia (Бенуа Сегюр) [2008, документальный, BDRip] [720p] [VO]+[Eng] торрент без регистрации

Статистика раздачи
Размер:  2,75 GB   |    Скачан:  8 раз

Полного источника не было: 30 минут

 
 
 
Автор Сообщение

Marsianka

[] 

Информация о фильме
Название: Стать мужчиной в Сибири
Оригинальное: Becoming a Man in Siberia
Год выхода: 2008
Жанр: документальный
Режиссер: Бенуа Сегюр

О фильме:
Фильм прослеживает грозные испытания, которые юноши, живущие в бескрайней Сибири, должны пройти, чтоб стать мужчинами. Каждому из героев предстоит пройти тяжелый путь инициации. Не выдержавшие испытания остаются детьми на всю жизнь. Эдик сражается с волками, защищая стадо оленей в 4000 голов во время грандиозной миграции на Большой Север. Альтагану и Дзолбо предстоит перегнать через монгольскую пустыню целое стадо верблюдов и отыскать сочные пастбища для прокорма в течение зимы.

Страна: Франция
Продолжительность: 00:51:39
Перевод: Профессиональный (одноголосый закадровый)

Файл
Кодек: MPEG-4 AVC
Качество: BDRip 720p
Видео: 1280x720, 6682 Кбит/с, 25 кадр/с
Аудио 1: Русский, AC-3, 2 канала, 192 Кбит/с
Аудио 2: Английский, DTS, 6 каналов, 755 Кбит/с
Общее
Уникальный идентификатор : 213659274421549480179831397396169465761 (0xA0BD478A1094BC9BBEFEFFB0A5C99FA1)
Полное имя : C:UsersDDesktopСТАТЬ МУЖЧИНОЙ В СИБИРИ.mkv
Формат : Matroska
Версия формата : Version 2
Размер файла : 2,75 Гбайт
Продолжительность : 51 м. 39 с.
Общий поток : 7629 Кбит/сек
Название фильма : Release for HDCLUB
Дата кодирования : UTC 2012-06-03 07:05:49
Программа кодирования : mkvmerge v5.6.0 ('Kenya Kane') built on May 27 2012 16:44:04
Библиотека кодирования : libebml v1.2.3 + libmatroska v1.3.0

Видео
Идентификатор : 1
Формат : AVC
Формат/Информация : Advanced Video Codec
Профиль формата : High@L3.1
Настройки формата : CABAC / 5 Ref Frames
Параметр CABAC формата : Да
Параметр RefFrames формата : 5 кадров
Идентификатор кодека : V_MPEG4/ISO/AVC
Продолжительность : 51 м. 39 с.
Битрейт : 6682 Кбит/сек
Ширина : 1280 пикселей
Высота : 720 пикселей
Соотношение сторон : 16:9
Режим частоты кадров : Постоянный
Частота кадров : 25,000 кадров/сек
Цветовое пространство : YUV
Субдискретизация насыщенности : 4:2:0
Битовая глубина : 8 бит
Тип развёртки : Прогрессивная
Бит/(Пиксели*Кадры) : 0.290
Размер потока : 2,36 Гбайт (86%)
Заголовок : Becoming a Man in Siberia
Библиотека кодирования : x264 core 104 r1688 0b36c6d
Настройки программы : cabac=1 / ref=5 / deblock=1:-3:-3 / analyse=0x3:0x113 / me=hex / subme=7 / psy=1 / psy_rd=1.00:0.00 / mixed_ref=1 / me_range=16 / chroma_me=1 / trellis=2 / 8x8dct=1 / cqm=0 / deadzone=21,11 / fast_pskip=1 / chroma_qp_offset=-2 / threads=3 / sliced_threads=0 / nr=0 / decimate=1 / interlaced=0 / constrained_intra=0 / bframes=5 / b_pyramid=2 / b_adapt=2 / b_bias=0 / direct=3 / weightb=1 / open_gop=0 / weightp=2 / keyint=250 / keyint_min=25 / scenecut=40 / intra_refresh=0 / rc=2pass / mbtree=0 / bitrate=6682 / ratetol=1.0 / qcomp=0.60 / qpmin=10 / qpmax=51 / qpstep=4 / cplxblur=20.0 / qblur=0.5 / ip_ratio=1.40 / pb_ratio=1.30 / aq=1:1.00
Язык : English
Default : Да
Forced : Нет

Аудио #1
Идентификатор : 2
Формат : AC-3
Формат/Информация : Audio Coding 3
Идентификатор кодека : A_AC3
Продолжительность : 51 м. 39 с.
Вид битрейта : Постоянный
Битрейт : 192 Кбит/сек
Каналы : 2 канала
Расположение каналов : Front: L R
Частота : 48,0 КГц
Частота кадров : 31,250 кадров/сек (1536 SPF)
Битовая глубина : 16 бит
Метод сжатия : С потерями
Размер потока : 70,9 Мбайт (3%)
Заголовок : Одноголосый закадровый
Язык : Russian
Default : Да
Forced : Нет

Аудио #2
Идентификатор : 3
Формат : DTS
Формат/Информация : Digital Theater Systems
Идентификатор кодека : A_DTS
Продолжительность : 51 м. 39 с.
Вид битрейта : Постоянный
Битрейт : 755 Кбит/сек
Каналы : 6 каналов
Расположение каналов : Front: L C R, Side: L R, LFE
Частота : 48,0 КГц
Частота кадров : 93,750 кадра/сек (512 SPF)
Битовая глубина : 24 бит
Метод сжатия : С потерями
Размер потока : 279 Мбайт (10%)
Заголовок : Becoming a Man in Siberia
Язык : English
Default : Нет
Forced : Нет



Скачать Стать.мужчиной.в.Сибири.Becoming.a.Man.in.Siberia.(Бенуа.Сегюр).[2008.документальный.BDRip].[720p].[VO]+[Eng].torrent без регистрации
Золото ЗОЛОТАЯ РАЗДАЧА! СКАЧАННОЕ НЕ ЗАСЧИТЫВАЕТСЯ! Золото
Дата: Зарегистрирован   [ Тип: внутренний ] Как тут cкачать?
MAGNET ссылка
MAGNET ссылка


Скачать .torrent

15 KB

Статус: проверено DHT
Скачан: торрент - 8 раз, раздача полностью - 0 раз
Размер: 2,75 GB
Оценка:  - (Голосов: 0)
Поблагодарили: 0
Поделиться ссылкой на эту раздачу с друзьями:
В контактеFacebookОдноклассникиTwitterLivejournalМой МирLiveinternet
 

 
Показать сообщения:    


Вы не можете начинать темы
Вы не можете отвечать на сообщения
Вы не можете редактировать свои сообщения
Вы не можете удалять свои сообщения
Вы не можете голосовать в опросах
Вы не можете прикреплять файлы к сообщениям
Вы можете скачивать файлы