Loading...
Error

Скачать Мертвеход / The Revenant (Д. Керри Прайор) [2009, ужасы, комедия, BDRip] [720p] [MVO]x2+[Eng]+[Sub Rus, Eng]x2 торрент без регистрации

Статистика раздачи
Размер:  5,53 GB   |    Скачан:  10 раз
Сидов:  1  [  0 KB/s  ]  
 
 
 
Автор Сообщение

Marsianka

[] 

Информация о фильме
Название: Мертвеход
Оригинальное название: The Revenant
Год выхода: 2009
Жанр: ужасы, комедия
Режиссер: Д. Керри Прайор
В ролях: Дэвид Андерс, Сьюзан Эверитт, Бернардо Бадилло, Брук Бикфорд, Эми Корреа, Брэкстон Дэвис, Дон Данн, Марк Елиас, Стэйси Мишель Голд

О фильме:
Два кореша, один уезжает воевать и погибает в перестрелке, его хоронят. Все было бы по обычному, если бы он не ожил в гробу после похорон. И что ему остается делать, как не идти к своему обезбашенному другу за помощью. Выясняется, что зомбо-корешу, чтобы не разлагаться нужно пить человеческую кровь, ну, а его дружбан берется помогать ему... Вот тут то и начинается заварушка.



Страна: США
Студия: Putrefactory
Продолжительность: 01:57:52
Перевод: Профессиональный многоголосый, любительский многоголосый

Файл
Кодек: x264
Качество: BDRip 720p
Видео: MPEG-4 AVC, 3500 Кбит/с, 1280x544, 23.976 кадр/с

1. Русский (АС3, 2 ch, 192 Кбит/с) / Профессиональный многоголосый (ТНТ)
2. Русский (DTS, 6 ch, 1510 Кбит/с) / Любительский многоголосый (ViruseProject)
3. Английский (DTS, 6 ch, 1510 Кбит/с)
Субтитры Русские, английские
Общее
Уникальный идентификатор : 206366248514887384517488559982859380848 (0x9B40B199C4AEE269A2D78012E9C1E870)
Полное имя : Mertvehod.2009.x264.BDRip(720p)-MediaClub.mkv
Формат : Matroska
Версия формата : Version 2
Размер файла : 5,53 Гбайт
Продолжительность : 1 ч. 57 м.
Общий поток : 6714 Кбит/сек
Название фильма : Release - MediaClub Rip by == vvmon ==
Дата кодирования : UTC 2013-09-29 16:59:32
Программа кодирования : mkvmerge v5.4.0 ('Piper') built on Mar 10 2012 13:34:39
Библиотека кодирования : libebml v1.2.3 + libmatroska v1.3.0

Видео
Идентификатор : 1
Формат : AVC
Формат/Информация : Advanced Video Codec
Профиль формата : High@L4.1
Параметр CABAC формата : Да
Параметр ReFrames формата : 8 кадров
Идентификатор кодека : V_MPEG4/ISO/AVC
Продолжительность : 1 ч. 57 м.
Битрейт : 3500 Кбит/сек
Ширина : 1280 пикселей
Высота : 544 пикселя
Соотношение сторон : 2,35:1
Режим частоты кадров : Постоянный
Частота кадров : 23,976 кадра/сек
Цветовое пространство : YUV
Субдискретизация насыщенности : 4:2:0
Битовая глубина : 8 бит
Тип развёртки : Прогрессивная
Бит/(Пиксели*Кадры) : 0.210
Размер потока : 2,77 Гбайт (50%)
Заголовок : Mertvehod.2009.x264.BDRip(720p)-MediaClub.mkv
Библиотека кодирования : x264 core 133 r2334 a3ac64b
Настройки программы : cabac=1 / ref=8 / deblock=1:-2:-2 / analyse=0x3:0x133 / me=umh / subme=11 / psy=1 / psy_rd=1.00:0.00 / mixed_ref=1 / me_range=48 / chroma_me=1 / trellis=2 / 8x8dct=1 / cqm=0 / deadzone=21,11 / fast_pskip=0 / chroma_qp_offset=-2 / threads=3 / lookahead_threads=1 / sliced_threads=0 / nr=0 / decimate=0 / interlaced=0 / bluray_compat=0 / constrained_intra=0 / bframes=8 / b_pyramid=2 / b_adapt=2 / b_bias=0 / direct=3 / weightb=1 / open_gop=0 / weightp=2 / keyint=240 / keyint_min=23 / scenecut=40 / intra_refresh=0 / rc=2pass / mbtree=0 / bitrate=3500 / ratetol=1.0 / qcomp=0.60 / qpmin=10 / qpmax=51 / qpstep=4 / cplxblur=20.0 / qblur=0.5 / ip_ratio=1.40 / pb_ratio=1.30 / aq=2:1.00
Язык : English
Default : Да
Forced : Нет

Аудио #1
Идентификатор : 2
Формат : AC-3
Формат/Информация : Audio Coding 3
Расширение режима : CM (complete main)
Параметр Endianness формата : Big
Идентификатор кодека : A_AC3
Продолжительность : 1 ч. 57 м.
Вид битрейта : Постоянный
Битрейт : 192 Кбит/сек
Каналы : 2 канала
Расположение каналов : Front: L R
Частота : 48,0 КГц
Битовая глубина : 16 бит
Метод сжатия : С потерями
Размер потока : 162 Мбайт (3%)
Заголовок : Профессиональный многоголосый (ТНТ)
Язык : Russian
Default : Да
Forced : Нет

Аудио #2
Идентификатор : 3
Формат : DTS
Формат/Информация : Digital Theater Systems
Режим : 16
Параметр Endianness формата : Big
Идентификатор кодека : A_DTS
Продолжительность : 1 ч. 57 м.
Вид битрейта : Постоянный
Битрейт : 1510 Кбит/сек
Каналы : 6 каналов
Расположение каналов : Front: L C R, Side: L R, LFE
Частота : 48,0 КГц
Битовая глубина : 24 бит
Метод сжатия : С потерями
Размер потока : 1,24 Гбайт (22%)
Заголовок : Любительский многоголосый (ViruseProject)
Язык : Russian
Default : Нет
Forced : Нет

Аудио #3
Идентификатор : 4
Формат : DTS
Формат/Информация : Digital Theater Systems
Режим : 16
Параметр Endianness формата : Big
Идентификатор кодека : A_DTS
Продолжительность : 1 ч. 57 м.
Вид битрейта : Постоянный
Битрейт : 1510 Кбит/сек
Каналы : 6 каналов
Расположение каналов : Front: L C R, Side: L R, LFE
Частота : 48,0 КГц
Битовая глубина : 24 бит
Метод сжатия : С потерями
Размер потока : 1,24 Гбайт (22%)
Заголовок : Английский
Язык : English
Default : Нет
Forced : Нет

Текст #1
Идентификатор : 5
Формат : UTF-8
Идентификатор кодека : S_TEXT/UTF8
Идентификатор кодека/Информация : UTF-8 Plain Text
Заголовок : Русские
Язык : Russian
Default : Да
Forced : Нет

Текст #2
Идентификатор : 6
Формат : UTF-8
Идентификатор кодека : S_TEXT/UTF8
Идентификатор кодека/Информация : UTF-8 Plain Text
Заголовок : Английские
Язык : English
Default : Нет
Forced : Нет

Меню
00:00:00.000 : en:Chapter 01
00:12:58.736 : en:Chapter 02
00:22:15.751 : en:Chapter 03
00:30:34.624 : en:Chapter 04
00:40:58.998 : en:Chapter 05
00:50:52.841 : en:Chapter 06
00:57:45.545 : en:Chapter 07
01:08:24.100 : en:Chapter 08
01:21:39.144 : en:Chapter 09
01:30:49.026 : en:Chapter 10
01:42:21.343 : en:Chapter 11
01:54:15.265 : en:Chapter 12
---[Information] [29.09.2013 8:53:40] x264 [info]: frame I:1227 Avg QP:15.20 size: 89450
---[Information] [29.09.2013 8:53:40] x264 [info]: frame P:34819 Avg QP:17.47 size: 33006
---[Information] [29.09.2013 8:53:40] x264 [info]: frame B:133533 Avg QP:19.14 size: 13739
• Сохранены оригинальные чаптеры как на Blu-ray
• За постер огромное спасибо команде Media-Art-Club

Перевод: Любительский многоголосый (ViruseProject)
Озвучка:
*viruse (Виталий Емельянов) - Джоуи, Мисис Агматик и другие
* _Lost_Girl_ (Полина Касаткина) - все женские
*europamusic (Сергей Калугин) - Барт и другие
Перевод: Vesel1509 (Артем Веселовский)
Релиз от: Rip by



Скачать Мертвеход.The.Revenant.(Д.Керри.Прайор).[2009.ужасы.комедия.BDRip].[720p].[MVO]x2+[Eng]+[Sub.Rus.Eng]x2.torrent без регистрации
Золото ЗОЛОТАЯ РАЗДАЧА! СКАЧАННОЕ НЕ ЗАСЧИТЫВАЕТСЯ! Золото
Дата: Зарегистрирован   [ Тип: внутренний ] Как тут cкачать?
MAGNET ссылка
MAGNET ссылка


Скачать .torrent

30 KB

Статус: проверено DHT
Скачан: торрент - 10 раз, раздача полностью - 2 раз
Размер: 5,53 GB
Оценка:  - (Голосов: 0)
Поблагодарили: 0
Поделиться ссылкой на эту раздачу с друзьями:
В контактеFacebookОдноклассникиTwitterLivejournalМой МирLiveinternet
 

 
Показать сообщения:    


Вы не можете начинать темы
Вы не можете отвечать на сообщения
Вы не можете редактировать свои сообщения
Вы не можете удалять свои сообщения
Вы не можете голосовать в опросах
Вы не можете прикреплять файлы к сообщениям
Вы можете скачивать файлы