Loading...
Error

Скачать Готова на всё (Зло) / Malice (Харольд Беккер) [1993, триллер, криминал, детектив, BDRip] [1080p] [DVO (R5)] [R.G. Goldenshara] торрент без регистрации

Статистика раздачи
Размер:  4,37 GB   |    Скачан:  48 раз
Сидов:  11  [  0 KB/s  ]  
 
 
 
Автор Сообщение

sobmaster

[] 



Готова на всё (Зло)
Malice




Год выпуска: 1993
Страна: Канада , США
Выпущено: Castle Rock Entertainment, Nelvana Limited, New Line Cinema
Слоган: «Триллер от режиссера «Море любви»»
Жанр: триллер, криминал, детектив

Продолжительность: 01:46:52
Перевод: Профессиональный (двухголосый, закадровый) (R5)
Режиссер: Харольд Беккер
Сценарий: Аарон Соркин, Скотт Фрэнк, Йонас МакКорд
Продюсер: Харольд Беккер, Чарльз Малвехилл, Рэйчел Феффер
Оператор: Гордон Уиллис
Композитор: Джерри Голдсмит
Художник: Филип Харрисон, Дайян Вагер, Майкл Каплан
Монтаж: Дэвид Брезертон
В ролях:


Алек Болдуин (Jed), Николь Кидман (Tracy), Билл Пуллман (Andy), Биби Ньювирт (Dana), Джордж К. Скотт (Dr. Kessler), Энн Бэнкрофт (Ms. Kennsinger), Питер Галлахер (Dennis Riley), Йозеф Зоммер (Lester Adams), Гвинет Пэлтроу (Paula Bell), Тобин Белл (Earl Leemus), Уильям Дафф-Гриффин (Dr. George Sullivan), Дебра Фарентино (Tanya), Дэвид Бове (Dr. Matthew Robertson), Диана Беллами (Ms. Worthington), Паула Плам (Neighbor Boy's Mother), Сара Мелсон (Girl on Bike)
Бюджет: $20 000 000
Сборы в США: $46 405 336
Зрители: США 11.2 млн , Германия 470.5 тыс. , Испания 246.1 тыс.
Мировая премьера: 29 сентября 1993
Релиз на DVD: 31 января 2006, «Монолит»
MPAA: - Лицам до 17 лет обязательно присутствие взрослого

Описание: На фоне тихой жизни городка при колледже в Новой Англии разворачиваются леденящие души события, необратимо вовлекая в запутанный узел интриг и предательства преуспевающего хирурга, очаровательного покорителя женских сердец, молодого профессора колледжа и его красавицу жену. В этом непредсказуемом фильме лихих поворотов сюжета больше, чем в самом запутанном лабиринте... В этом впечатляющем триллере, который можно, пожалуй, поставить в один ряд с "Молчанием ягнят" и "Основным инстинктом", конечно же, замешана женщина. И замес, надо отметить, крутой. И хотя людоеды и маньяки отсутствуют, в конце фильма вам может быть очень не по себе. Чтобы не портить удовольствие, больше о сюжете ни слова. Сами имена - Болдуин и Кидман - говорят за себя, а выложились эти звезды на все сто.


Качество: BDRip 1080p
Контейнер: MKV
Видео: AVC, 1920x1040 (1.85:1), 5408 kbps, 23.976 fps, 0.113 bpp
Аудио: русский /; AC3 /; 2.0 /; 48 kHz /; 448 kbps /; 16 bit; ||
Субтитры #1: русские
Субтитры #2: английские
Навигация по главам: есть

АНОНСЫ ПОПУЛЯРНЫХ РАЗДАЧ

Код:

General
Unique ID                                : 185549882794969332734965403425602031641 (0x8B979B8815AD39328EDC4D74192C5019)
Complete name                            : E:\Мои рипы\Готова на все.1993.BDRip.1080p.DVO.mkv
Format                                   : Matroska
Format version                           : Version 4 / Version 2
File size                                : 4.37 GiB
Duration                                 : 1h 46mn
Overall bit rate                         : 5 858 Kbps
Encoded date                             : UTC 2018-03-20 15:09:52
Writing application                      : mkvmerge v6.8.0 ('Theme for Great Cities') 64bit built on Mar  2 2014 21:34:26
Writing library                          : libebml v1.3.0 + libmatroska v1.4.1

Video
ID                                       : 1
Format                                   : AVC
Format/Info                              : Advanced Video Codec
Format profile                           : High@L4.1
Format settings, CABAC                   : Yes
Format settings, ReFrames                : 4 frames
Codec ID                                 : V_MPEG4/ISO/AVC
Duration                                 : 1h 46mn
Bit rate                                 : 5 408 Kbps
Width                                    : 1 920 pixels
Height                                   : 1 040 pixels
Display aspect ratio                     : 1.85:1
Frame rate mode                          : Constant
Frame rate                               : 23.976 fps
Color space                              : YUV
Chroma subsampling                       : 4:2:0
Bit depth                                : 8 bits
Scan type                                : Progressive
Bits/(Pixel*Frame)                       : 0.113
Stream size                              : 3.95 GiB (90%)
Writing library                          : x264 core 146 r2538 121396c
Encoding settings                        : cabac=1 / ref=4 / deblock=1:-3:-3 / analyse=0x3:0x113 / me=umh / subme=11 / psy=1 / psy_rd=1.00:0.15 / mixed_ref=1 / me_range=48 / chroma_me=1 / trellis=2 / 8x8dct=1 / cqm=0 / deadzone=21,11 / fast_pskip=0 / chroma_qp_offset=-4 / threads=6 / lookahead_threads=1 / sliced_threads=0 / nr=0 / decimate=0 / interlaced=0 / bluray_compat=0 / constrained_intra=0 / bframes=8 / b_pyramid=2 / b_adapt=2 / b_bias=0 / direct=2 / weightb=1 / open_gop=0 / weightp=2 / keyint=250 / keyint_min=23 / scenecut=40 / intra_refresh=0 / rc_lookahead=50 / rc=2pass / mbtree=0 / bitrate=5408 / ratetol=1.0 / qcomp=0.60 / qpmin=0 / qpmax=69 / qpstep=4 / cplxblur=20.0 / qblur=0.5 / vbv_maxrate=14000 / vbv_bufsize=14000 / nal_hrd=none / filler=0 / ip_ratio=1.40 / pb_ratio=1.30 / aq=2:1.00
Language                                 : English
Default                                  : Yes
Forced                                   : No
Color primaries                          : Generic film
Matrix coefficients                      : YCgCo

Audio
ID                                       : 2
Format                                   : AC-3
Format/Info                              : Audio Coding 3
Mode extension                           : CM (complete main)
Format settings, Endianness              : Big
Codec ID                                 : A_AC3
Duration                                 : 1h 46mn
Bit rate mode                            : Constant
Bit rate                                 : 448 Kbps
Channel(s)                               : 2 channels
Channel positions                        : Front: L R
Sampling rate                            : 48.0 KHz
Bit depth                                : 16 bits
Compression mode                         : Lossy
Stream size                              : 342 MiB (8%)
Title                                    : DVO (R5)
Language                                 : Russian
Default                                  : Yes
Forced                                   : No

Text #1
ID                                       : 3
Format                                   : UTF-8
Codec ID                                 : S_TEXT/UTF8
Codec ID/Info                            : UTF-8 Plain Text
Language                                 : Russian
Default                                  : No
Forced                                   : No

Text #2
ID                                       : 4
Format                                   : UTF-8
Codec ID                                 : S_TEXT/UTF8
Codec ID/Info                            : UTF-8 Plain Text
Language                                 : English
Default                                  : No
Forced                                   : No

Menu
00:00:00.000                             : en:Chapter 1
00:15:46.737                             : en:Chapter 2
00:27:36.237                             : en:Chapter 3
00:47:04.947                             : en:Chapter 4
01:00:57.362                             : en:Chapter 5
01:09:23.325                             : en:Chapter 6
01:24:18.428                             : en:Chapter 7
01:33:49.040                             : en:Chapter 8


Раздаю ночью с 0.00 до 7.00 до 5 скачавших. На раздачи не возвращаюсь.





Скачать Готова.на.всё.(Зло).Malice.(Харольд.Беккер).[1993.триллер.криминал.детектив.BDRip].[1080p].[DVO.(R5)].[R.G.Goldenshara].torrent без регистрации
Золото ЗОЛОТАЯ РАЗДАЧА! СКАЧАННОЕ НЕ ЗАСЧИТЫВАЕТСЯ! Золото
Дата: Зарегистрирован   [ Тип: внешний ] Как тут cкачать?
MAGNET ссылка
MAGNET ссылка


Скачать .torrent

12 KB

Статус: проверено DHT
Скачан: торрент - 48 раз, раздача полностью - 55 раз
Размер: 4,37 GB
Оценка:  5 (Голосов: 5)
Поблагодарили: 10
Поделиться ссылкой на эту раздачу с друзьями:
В контактеFacebookОдноклассникиTwitterLivejournalМой МирLiveinternet
 

 
Показать сообщения:    


Вы не можете начинать темы
Вы не можете отвечать на сообщения
Вы не можете редактировать свои сообщения
Вы не можете удалять свои сообщения
Вы не можете голосовать в опросах
Вы не можете прикреплять файлы к сообщениям
Вы можете скачивать файлы