Loading...
Error

Скачать Эта веселая планета (Юрий Сааков, Юрий Цветков) [1973, мюзикл, фантастика, комедия, DVDRip-AVC] торрент без регистрации

Статистика раздачи
Размер:  2,78 GB   |    Скачан:  16 раз
Сидов:  1  [  0 KB/s  ]  
 
 
 
Автор Сообщение

Marsianka

[] 

Информация о фильме
Название: Эта веселая планета
Год выхода: 1973
Жанр: мюзикл, фантастика, комедия
Режиссер: Юрий Сааков, Юрий Цветков
В ролях: Савелий Крамаров, Леонид Куравлев, Александр Вокач, Виктор Сергачев, Екатерина Васильева, Лариса Барабанова, Наталья Крачковская, Владимир Носик, Игорь Кашинцев, Юрий Демин

О фильме: Прилетевшие на Землю инопланетяне попадают на встречу Нового года в обычный Дворец культуры. Столкнувшись со множеством загадок, они постепенно приходят к пониманию того, что земная жизнь без шутки и смеха, без искусства и любви невозможна.



Страна: СССР
Студия: Мосфильм
Продолжительность: 01:31:04

Файл
Кодек: х264
Качество: DVDRip-AVC
Видео: MPEG-4 AVC, 720x556@768x556, 25 fps, 3700 Кбит/с
Аудио #1: AC3, 6 ch, 448 Кбит/с
Аудио #2: AC3, 1 ch, 224 Кбит/с

x264 [info]: frame I:753 Avg QP:18.88 size: 71809
x264 [info]: frame P:43233 Avg QP:21.30 size: 34561
x264 [info]: frame B:92634 Avg QP:23.16 size: 10572
==================================================================================
Общее
Уникальный идентификатор : 173888017397387203855907201136781994938 (0x82D19D2CFAA247CAA38EC3489C94ABBA)
Полное имя : D:Эта веселая планета_1973-DVDRip-AVC.mkv
Формат : Matroska
Версия формата : Version 2
Размер файла : 2,78 Гбайт
Продолжительность : 1 ч. 31 м.
Общий поток : 4374 Кбит/сек
Дата кодирования : UTC 2016-12-30 19:21:34
Программа кодирования : mkvmerge v5.8.0 ('No Sleep / Pillow') built on Sep 2 2012 15:37:04
Библиотека кодирования : libebml v1.2.3 + libmatroska v1.3.0

Видео
Идентификатор : 1
Формат : AVC
Формат/Информация : Advanced Video Codec
Профиль формата : High@L4.1
Параметр CABAC формата : Да
Параметр ReFrames формата : 16 кадров
Идентификатор кодека : V_MPEG4/ISO/AVC
Продолжительность : 1 ч. 31 м.
Битрейт : 3700 Кбит/сек
Ширина : 720 пикселей
Высота : 556 пикселей
Соотношение сторон : 1,381
Режим частоты кадров : Постоянный
Частота кадров : 25,000 кадров/сек
Цветовое пространство : YUV
Субдискретизация насыщенности : 4:2:0
Битовая глубина : 8 бит
Тип развёртки : Прогрессивная
Бит/(Пиксели*Кадры) : 0.370
Размер потока : 2,30 Гбайт (83%)
Заголовок : korsar.tv
Библиотека кодирования : x264 core 148 r2744kMod b97ae06
Настройки программы : cabac=1 / ref=16 / deblock=1:-2:-2 / analyse=0x3:0x133 / me=umh / subme=10 / psy=1 / fade_compensate=0.00 / psy_rd=1.00:0.10 / mixed_ref=1 / me_range=32 / chroma_me=1 / trellis=2 / 8x8dct=1 / cqm=0 / deadzone=21,11 / fast_pskip=0 / chroma_qp_offset=-3 / threads=12 / lookahead_threads=3 / sliced_threads=0 / nr=0 / decimate=0 / interlaced=0 / bluray_compat=0 / constrained_intra=0 / bframes=10 / b_pyramid=2 / b_adapt=2 / b_bias=0 / direct=3 / weightb=1 / open_gop=0 / weightp=2 / keyint=250 / keyint_min=25 / scenecut=40 / intra_refresh=0 / rc=2pass / mbtree=0 / bitrate=3700 / ratetol=1.0 / qcomp=0.63 / qpmin=0 / qpmax=39 / qpstep=4 / cplxblur=20.0 / qblur=0.5 / ip_ratio=1.20 / pb_ratio=1.30 / aq=2:0.80
Язык : English
Default : Да
Forced : Нет
Цветовой диапазон : Limited
Основные цвета : BT.601 PAL
Характеристики трансфера : BT.470 System B, BT.470 System G
Коэффициенты матрицы : BT.601

Аудио #1
Идентификатор : 2
Формат : AC-3
Формат/Информация : Audio Coding 3
Расширение режима : CM (complete main)
Параметр Endianness формата : Big
Идентификатор кодека : A_AC3
Продолжительность : 1 ч. 31 м.
Вид битрейта : Постоянный
Битрейт : 448 Кбит/сек
Каналы : 6 каналов
Расположение каналов : Front: L C R, Side: L R, LFE
Частота : 48,0 КГц
Частота кадров : 31,250 кадров/сек (1536 spf)
Битовая глубина : 16 бит
Метод сжатия : С потерями
Задержка видео : 341 мс.
Размер потока : 292 Мбайт (10%)
Язык : Russian
Default : Да
Forced : Нет

Аудио #2
Идентификатор : 3
Формат : AC-3
Формат/Информация : Audio Coding 3
Расширение режима : CM (complete main)
Параметр Endianness формата : Big
Идентификатор кодека : A_AC3
Продолжительность : 1 ч. 31 м.
Вид битрейта : Постоянный
Битрейт : 224 Кбит/сек
Каналы : 1 канал
Расположение каналов : Front: C
Частота : 48,0 КГц
Частота кадров : 31,250 кадров/сек (1536 spf)
Битовая глубина : 16 бит
Метод сжатия : С потерями
Задержка видео : 341 мс.
Размер потока : 146 Мбайт (5%)
Язык : Russian
Default : Нет
Forced : Нет

Меню
00:00:00.000 : en:Chapter 1
00:05:01.440 : en:Chapter 2
00:11:56.160 : en:Chapter 3
00:17:17.280 : en:Chapter 4
00:24:59.040 : en:Chapter 5
00:29:44.160 : en:Chapter 6
00:36:24.960 : en:Chapter 7
00:41:33.120 : en:Chapter 8
00:47:44.640 : en:Chapter 9
00:52:25.440 : en:Chapter 10
00:58:43.680 : en:Chapter 11
01:05:56.640 : en:Chapter 12
01:12:00.960 : en:Chapter 13
01:19:36.960 : en:Chapter 14
01:24:50.400 : en:Chapter 15
01:28:36.960 : en:Chapter 16
Релиз от:



Скачать Эта.веселая.планета.(Юрий.Сааков.Юрий.Цветков).[1973.мюзикл.фантастика.комедия.DVDRip-AVC].torrent без регистрации
Золото ЗОЛОТАЯ РАЗДАЧА! СКАЧАННОЕ НЕ ЗАСЧИТЫВАЕТСЯ! Золото
Дата: Зарегистрирован   [ Тип: внутренний ] Как тут cкачать?
MAGNET ссылка
MAGNET ссылка


Скачать .torrent

15 KB

Статус: проверено DHT
Скачан: торрент - 16 раз, раздача полностью - 10 раз
Размер: 2,78 GB
Оценка:  - (Голосов: 0)
Поблагодарили: 1
Поделиться ссылкой на эту раздачу с друзьями:
В контактеFacebookОдноклассникиTwitterLivejournalМой МирLiveinternet
 

 
Показать сообщения:    


Вы не можете начинать темы
Вы не можете отвечать на сообщения
Вы не можете редактировать свои сообщения
Вы не можете удалять свои сообщения
Вы не можете голосовать в опросах
Вы не можете прикреплять файлы к сообщениям
Вы можете скачивать файлы