Loading...
Error

Скачать Доставить по назначению / The Package (Эндрю Дэвис) [1989, боевик, триллер, драма, криминал, BDRip-AVC] [Dub]+[MVO]+[DVO]+[AVO]+[Оригинал Eng]+[Sub Eng] торрент без регистрации

Статистика раздачи
Размер:  2,73 GB   |    Скачан:  8 раз
Сидов:  1  [  0 KB/s  ]  
 
 
 
Автор Сообщение

Marsianka

[] 



Информация о фильме
Название: Доставить по назначению
Оригинальное название: The Package
Год выхода: 1989
Жанр: боевик, триллер, драма, криминал
Режиссер: Эндрю Дэвис / Andrew Davis
В ролях: Джин Хэкмен, Джоанна Кэссиди, Томми Ли Джонс, Джон Хёрд, Деннис Франц, Пэм Гриер, Кевин Краули, Рон Дин, Нэйтан Дэвис, Челси Росс

О фильме:
По окончании «холодной войны» сверхдержавы СССР и США готовят договор о глобальном сокращении всех видов вооружения. Но группа влиятельных военных приводит в действие тайный заговор с целью сорвать подписание договора. И начинается тайная война. Заказные политические убийства происходят одно за другим. Гибнут невинные люди.
Сержант Джонни Галлахер должен доставить в США арестованного, оказавшегося солдатом сил спецназа. Но по прибытии в Вашингтон, «груз» исчезает при загадочных обстоятельствах. Галлахер начинает собственное расследование, в ходе которого узнает о причастности к политическим убийствам сбежавшего арестованного. Джонни Галлахер теперь единственный, кто способен предотвратить новые убийства.



Выпущено: США | Orion Pictures
Продолжительность: 01:48:10
Профессиональный (дублированный) , Профессиональный (многоголосый закадровый), Профессиональный (двухголосый закадровый), Авторский (одноголосый закадровый)
Cубтитры: Английские
Файл:
Качество видео: BDRip-AVC
Формат: MKV
Видео: AVC/H.264, 1024x552, ~2650 Kbps
Аудио 1: Русский, AC3, 2 ch, 192 Kbps, 48.0 kHz (Dub, Варус Видео)
Аудио 2: Русский, AC3, 2 ch, 192 Kbps, 48.0 kHz (MVO, Первый канал)
Аудио 3: Русский, AC3, 2 ch, 192 Kbps, 48.0 kHz (DVO, НТВ+)
Аудио 4: Русский, AC3, 2 ch, 192 Kbps, 48.0 kHz (AVO, Ю.Сербин)
Аудио 5: Английский, AC3, 2 ch, 192 Kbps, 48.0 kHz (Оригинал)


Общее
Уникальный идентификатор : 204390457135264336239938829975545939347 (0x99C42B908C554CB9AC4D28A595438593)
Полное имя : F:DownloadsДоставить по назначению. 1989. NNMCLUB.mkv
Формат : Matroska
Версия формата : Version 4 / Version 2
Размер файла : 2,73 Гбайт
Продолжительность : 1 ч. 48 м.
Общий поток : 3612 Кбит/сек
Дата кодирования : UTC 2018-03-19 11:26:16
Программа кодирования : mkvmerge v7.9.0 ('Birds') 64bit
Библиотека кодирования : libebml v1.3.1 + libmatroska v1.4.2

Видео
Идентификатор : 1
Формат : AVC
Формат/Информация : Advanced Video Codec
Профиль формата : High@L4.1
Настройки формата : CABAC / 10 Ref Frames
Параметр CABAC формата : Да
Параметр RefFrames формата : 10 кадров
Идентификатор кодека : V_MPEG4/ISO/AVC
Продолжительность : 1 ч. 48 м.
Битрейт : 2650 Кбит/сек
Ширина : 1024 пикселя
Высота : 552 пикселя
Соотношение сторон : 1,85:1
Режим частоты кадров : Постоянный
Частота кадров : 23,976 (24000/1001) кадра/сек
Цветовое пространство : YUV
Субдискретизация насыщенности : 4:2:0
Битовая глубина : 8 бит
Тип развёртки : Прогрессивная
Бит/(Пиксели*Кадры) : 0.196
Размер потока : 2,00 Гбайт (73%)
Заголовок : The Package
Библиотека кодирования : x264 core 146 r2538 121396c
Настройки программы : cabac=1 / ref=10 / deblock=1:-1:-1 / analyse=0x3:0x113 / me=umh / subme=10 / psy=1 / psy_rd=1.00:0.10 / mixed_ref=1 / me_range=32 / chroma_me=1 / trellis=2 / 8x8dct=1 / cqm=0 / deadzone=21,11 / fast_pskip=0 / chroma_qp_offset=-3 / threads=6 / lookahead_threads=1 / sliced_threads=0 / nr=0 / decimate=0 / interlaced=0 / bluray_compat=0 / constrained_intra=0 / bframes=7 / b_pyramid=2 / b_adapt=2 / b_bias=0 / direct=3 / weightb=1 / open_gop=0 / weightp=2 / keyint=250 / keyint_min=25 / scenecut=40 / intra_refresh=0 / rc_lookahead=60 / rc=2pass / mbtree=1 / bitrate=2650 / ratetol=1.0 / qcomp=0.60 / qpmin=0 / qpmax=69 / qpstep=4 / cplxblur=20.0 / qblur=0.5 / vbv_maxrate=14000 / vbv_bufsize=14000 / nal_hrd=none / filler=0 / ip_ratio=1.40 / aq=1:1.00
Язык : English
Default : Да
Forced : Нет

Аудио #1
Идентификатор : 2
Формат : AC-3
Формат/Информация : Audio Coding 3
Идентификатор кодека : A_AC3
Продолжительность : 1 ч. 48 м.
Вид битрейта : Постоянный
Битрейт : 192 Кбит/сек
Каналы : 2 канала
Расположение каналов : Front: L R
Частота : 48,0 КГц
Частота кадров : 31,250 кадров/сек (1536 SPF)
Битовая глубина : 16 бит
Метод сжатия : С потерями
Размер потока : 149 Мбайт (5%)
Заголовок : Дубляж, Варус видео
Язык : Russian
ServiceKind : Complete Main
Default : Да
Forced : Нет

Аудио #2
Идентификатор : 3
Формат : AC-3
Формат/Информация : Audio Coding 3
Идентификатор кодека : A_AC3
Продолжительность : 1 ч. 48 м.
Вид битрейта : Постоянный
Битрейт : 192 Кбит/сек
Каналы : 2 канала
Расположение каналов : Front: L R
Частота : 48,0 КГц
Частота кадров : 31,250 кадров/сек (1536 SPF)
Битовая глубина : 16 бит
Метод сжатия : С потерями
Размер потока : 149 Мбайт (5%)
Заголовок : Многолосый закадровый, Первый канал
Язык : Russian
ServiceKind : Complete Main
Default : Нет
Forced : Нет

Аудио #3
Идентификатор : 4
Формат : AC-3
Формат/Информация : Audio Coding 3
Идентификатор кодека : A_AC3
Продолжительность : 1 ч. 48 м.
Вид битрейта : Постоянный
Битрейт : 192 Кбит/сек
Каналы : 2 канала
Расположение каналов : Front: L R
Частота : 48,0 КГц
Частота кадров : 31,250 кадров/сек (1536 SPF)
Битовая глубина : 16 бит
Метод сжатия : С потерями
Размер потока : 149 Мбайт (5%)
Заголовок : Двуголосый закадровый, НТВ+
Язык : Russian
ServiceKind : Complete Main
Default : Нет
Forced : Нет

Аудио #4
Идентификатор : 5
Формат : AC-3
Формат/Информация : Audio Coding 3
Идентификатор кодека : A_AC3
Продолжительность : 1 ч. 48 м.
Вид битрейта : Постоянный
Битрейт : 192 Кбит/сек
Каналы : 2 канала
Расположение каналов : Front: L R
Частота : 48,0 КГц
Частота кадров : 31,250 кадров/сек (1536 SPF)
Битовая глубина : 16 бит
Метод сжатия : С потерями
Размер потока : 149 Мбайт (5%)
Заголовок : Авторский, Ю.Сербин
Язык : Russian
ServiceKind : Complete Main
Default : Нет
Forced : Нет

Аудио #5
Идентификатор : 6
Формат : AC-3
Формат/Информация : Audio Coding 3
Идентификатор кодека : A_AC3
Продолжительность : 1 ч. 48 м.
Вид битрейта : Постоянный
Битрейт : 192 Кбит/сек
Каналы : 2 канала
Расположение каналов : Front: L R
Частота : 48,0 КГц
Частота кадров : 31,250 кадров/сек (1536 SPF)
Битовая глубина : 16 бит
Метод сжатия : С потерями
Размер потока : 149 Мбайт (5%)
Заголовок : Оригинал
Язык : English
ServiceKind : Complete Main
Default : Нет
Forced : Нет

Текст
Идентификатор : 7
Формат : UTF-8
Идентификатор кодека : S_TEXT/UTF8
Идентификатор кодека/Информация : UTF-8 Plain Text
Продолжительность : 1 ч. 40 м.
Битрейт : 49 бит/сек
ElementCount : 958
Размер потока : 36,8 Кбайт (0%)
Заголовок : SRT
Язык : English
Default : Нет
Forced : Нет





Скачать Доставить.по.назначению.The.Package.(Эндрю.Дэвис).[1989.боевик.триллер.драма.криминал.BDRip-AVC].[Dub]+[MVO]+[DVO]+[AVO]+[Оригинал.Eng]+[Sub.Eng].torrent без регистрации
Золото ЗОЛОТАЯ РАЗДАЧА! СКАЧАННОЕ НЕ ЗАСЧИТЫВАЕТСЯ! Золото
Дата: Зарегистрирован   [ Тип: внутренний ] Как тут cкачать?
MAGNET ссылка
MAGNET ссылка


Скачать .torrent

15 KB

Статус: проверено DHT
Скачан: торрент - 8 раз, раздача полностью - 1 раз
Размер: 2,73 GB
Оценка:  - (Голосов: 0)
Поблагодарили: 0
Поделиться ссылкой на эту раздачу с друзьями:
В контактеFacebookОдноклассникиTwitterLivejournalМой МирLiveinternet
 

 
Показать сообщения:    


Вы не можете начинать темы
Вы не можете отвечать на сообщения
Вы не можете редактировать свои сообщения
Вы не можете удалять свои сообщения
Вы не можете голосовать в опросах
Вы не можете прикреплять файлы к сообщениям
Вы можете скачивать файлы