Loading...
Error

Скачать Возвращение мушкетеров / The Return of the Musketeers (Ричард Лестер) [1989, приключения, комедия, экранизация, WEB-DLRip] [720p] [DVO]+[MVO]+[VO]+[Оригинал Eng]+[Sub Eng] торрент без регистрации

Статистика раздачи
Размер:  5,69 GB   |    Скачан:  14 раз
Сидов:  1  [  0 KB/s  ]  
 
 
 
Автор Сообщение

Marsianka

[] 

Название: Возвращение мушкетеров
Оригинальное название: The Return of the Musketeers
Год выпуска: 1989
Выпущено: Великобритания, Франция, Испания, Ciné 5, Fildebroc, Iberoamericana Films Producción
Жанр: приключения, комедия, экранизация
Режиссер: Ричард Лестер
В ролях: Ким Кэтролл, Майкл Йорк, Кристофер Ли, Ричард Чемберлен, Фрэнк Финлэй, Оливер Рид, Филипп Нуаре, Рой Киннер, Джеральдин Чаплин, Фернандо Симон, Иисус Гарсия, Рафаэль Де Ла Круз, Кармен Фернандез, Лучиано Федерико, Рикардо Палашиос, Джек Тейлор...

О фильме: По мотивам романа Александра Дюма "20 лет спустя".
1649 год. В королевских семьях Европы царит тревога. Английский король Карл I свергнут войсками Оливера Кромвеля. Французский монарх Людовик XIV еще слишком юн, страной правит королева-мать Анна Австрийская и ее любовник кардинал Мазарини. Анна и кардинал ищут людей, которые могут спасти короля Карла, и королева вспоминает о своих старых друзьях. Между тем, всем мушкетерам уже за сорок: Д’Артаньян по-прежнему носит плащ лейтенанта королевских мушкетеров, Арамиса больше интересуют любовные похождения, нежели религия, Портос богат, но несчастлив, а Атос потихоньку спивается. Но всех четверых вновь собирает приказ королевы. Теперь их главная соперница — дочь казненной ими миледи Жюстина, жаждущая отомстить за смерть матери. Мушкетеры должны спасти короля, невредимыми покинуть Англию, избежать мести со стороны Жюстины и предотвратить политический переворот со стороны Бофорта.



Продолжительность: 01:42:20
Перевод: Профессиональный двухголосый, профессиональный одноголосый
Субтитры: Английские

Качество: WEB-DLRip 720p
Видео: MPEG-4 AVC, 7357 Кбит/сек, 1280x720, 23,976 кадра/сек
Аудио #1: AC3, 2 ch, 192 Кбит/сек | Русский, профессиональный (одноголосый закадровый) Вадим Андреев
Аудио #2: AC3, 2 ch, 192 Кбит/сек | Русский, профессиональный (многоголосый закадровый) НТВ+
Аудио #3: AC3, 2 ch, 224 Кбит/сек | Английский, оригинал
Релиз от:
x264 [info]: frame I:1039 Avg QP:16.27 size:153688
x264 [info]: frame P:34080 Avg QP:18.46 size: 63330
x264 [info]: frame B:112101 Avg QP:20.23 size: 29691
-----------------------------------------------------
Общее
Уникальный идентификатор : 236395562191120805381598432743771251179 (0xB1D82112E294A828A12D8C412766A1EB)
Полное имя : Возвращение.мушкетеров.1989.WEB-DLRip.720p.KORSAR.mkv
Формат : Matroska
Версия формата : Version 2
Размер файла : 5,69 Гбайт
Продолжительность : 1 ч. 42 м.
Общий поток : 7967 Кбит/сек
Дата кодирования : UTC 2018-03-08 23:43:33
Программа кодирования : mkvmerge v5.8.0 ('No Sleep / Pillow') built on Sep 2 2012 15:37:04
Библиотека кодирования : libebml v1.2.3 + libmatroska v1.3.0

Видео
Идентификатор : 1
Формат : AVC
Формат/Информация : Advanced Video Codec
Профиль формата : High@L4.1
Параметр CABAC формата : Да
Параметр RefFrames формата : 9 кадров
Идентификатор кодека : V_MPEG4/ISO/AVC
Продолжительность : 1 ч. 42 м.
Битрейт : 7357 Кбит/сек
Ширина : 1280 пикселей
Высота : 720 пикселей
Соотношение сторон : 16:9
Режим частоты кадров : Постоянный
Частота кадров : 23,976 (24000/1001) кадра/сек
Цветовое пространство : YUV
Субдискретизация насыщенности : 4:2:0
Битовая глубина : 8 бит
Тип развёртки : Прогрессивная
Бит/(Пиксели*Кадры) : 0.333
Размер потока : 5,15 Гбайт (90%)
Заголовок : RIP | MZMA
Библиотека кодирования : x264 core 152 r2851kMod ba24899
Настройки программы : cabac=1 / ref=9 / deblock=1:-3:-2 / analyse=0x3:0x113 / me=umh / subme=11 / psy=1 / fade_compensate=0.00 / psy_rd=1.00:0.00 / mixed_ref=1 / me_range=48 / chroma_me=1 / trellis=2 / 8x8dct=1 / cqm=0 / deadzone=21,11 / fast_pskip=0 / chroma_qp_offset=-2 / threads=6 / lookahead_threads=1 / sliced_threads=0 / nr=0 / decimate=0 / interlaced=0 / bluray_compat=0 / constrained_intra=0 / bframes=16 / b_pyramid=2 / b_adapt=2 / b_bias=0 / direct=3 / weightb=1 / open_gop=0 / weightp=2 / keyint=240 / keyint_min=23 / scenecut=40 / intra_refresh=0 / rc_lookahead=40 / rc=2pass / mbtree=0 / bitrate=7357 / ratetol=1.0 / qcomp=0.60 / qpmin=0 / qpmax=69 / qpstep=4 / cplxblur=20.0 / qblur=0.5 / vbv_maxrate=50000 / vbv_bufsize=62500 / nal_hrd=none / filler=0 / ip_ratio=1.40 / pb_ratio=1.30 / aq=1:1.00
Язык : English
Default : Да
Forced : Нет
Цветовой диапазон : Limited
Основные цвета : BT.709
Характеристики трансфера : BT.709
Коэффициенты матрицы : BT.709

Аудио #1
Идентификатор : 2
Формат : AC-3
Формат/Информация : Audio Coding 3
Параметр Endianness формата : Big
Идентификатор кодека : A_AC3
Продолжительность : 1 ч. 42 м.
Вид битрейта : Постоянный
Битрейт : 192 Кбит/сек
Каналы : 2 канала
Расположение каналов : Front: L R
Частота : 48,0 КГц
Частота кадров : 31,250 кадров/сек (1536 SPF)
Битовая глубина : 16 бит
Метод сжатия : С потерями
Размер потока : 141 Мбайт (2%)
Заголовок : PVO | В. Андреев
Язык : Russian
По умолчанию : Да
Принудительно : Нет

Аудио #2
Идентификатор : 3
Формат : AC-3
Формат/Информация : Audio Coding 3
Параметр Endianness формата : Big
Идентификатор кодека : A_AC3
Продолжительность : 1 ч. 42 м.
Вид битрейта : Постоянный
Битрейт : 192 Кбит/сек
Каналы : 2 канала
Расположение каналов : Front: L R
Частота : 48,0 КГц
Частота кадров : 31,250 кадров/сек (1536 SPF)
Битовая глубина : 16 бит
Метод сжатия : С потерями
Размер потока : 141 Мбайт (2%)
Заголовок : MVO | НТВ+
Язык : Russian
По умолчанию : Нет
Принудительно : Нет

Аудио #3
Идентификатор : 4
Формат : AC-3
Формат/Информация : Audio Coding 3
Параметр Endianness формата : Big
Идентификатор кодека : A_AC3
Продолжительность : 1 ч. 42 м.
Вид битрейта : Постоянный
Битрейт : 224 Кбит/сек
Каналы : 2 канала
Расположение каналов : Front: L R
Частота : 48,0 КГц
Частота кадров : 31,250 кадров/сек (1536 SPF)
Битовая глубина : 16 бит
Метод сжатия : С потерями
Размер потока : 164 Мбайт (3%)
Заголовок : Original
Язык : English
По умолчанию : Нет
Принудительно : Нет

Текст #1
Идентификатор : 5
Формат : UTF-8
Идентификатор кодека : S_TEXT/UTF8
Идентификатор кодека/Информация : UTF-8 Plain Text
Язык : English
По умолчанию : Нет
Принудительно : Нет

Текст #2
Идентификатор : 6
Формат : UTF-8
Идентификатор кодека : S_TEXT/UTF8
Идентификатор кодека/Информация : UTF-8 Plain Text
Заголовок : SDH
Язык : English
По умолчанию : Нет
Принудительно : Нет
За оцифровку В. Андреева спасибо Fikaloid.
В кадре, временами присутствует, логотип телеканала "STARZ".



Скачать Возвращение.мушкетеров.The.Return.of.the.Musketeers.(Ричард.Лестер).[1989.приключения.комедия.экранизация.WEB-DLRip].[720p].[DVO]+[MVO]+[VO]+[Оригинал.Eng]+[Sub.Eng].torrent без регистрации
Золото ЗОЛОТАЯ РАЗДАЧА! СКАЧАННОЕ НЕ ЗАСЧИТЫВАЕТСЯ! Золото
Дата: Зарегистрирован   [ Тип: внутренний ] Как тут cкачать?
MAGNET ссылка
MAGNET ссылка


Скачать .torrent

30 KB

Статус: проверено DHT
Скачан: торрент - 14 раз, раздача полностью - 8 раз
Размер: 5,69 GB
Оценка:  - (Голосов: 0)
Поблагодарили: 0
Поделиться ссылкой на эту раздачу с друзьями:
В контактеFacebookОдноклассникиTwitterLivejournalМой МирLiveinternet
 

 
Показать сообщения:    


Вы не можете начинать темы
Вы не можете отвечать на сообщения
Вы не можете редактировать свои сообщения
Вы не можете удалять свои сообщения
Вы не можете голосовать в опросах
Вы не можете прикреплять файлы к сообщениям
Вы можете скачивать файлы