Loading...
Error

Скачать Под кайфом и в смятении / Dazed and Confused (Ричард Линклэйтер / Richard Linklater) [1993, драма, комедия, BDRemux] [1080p] [Dub] + [DVO] + [Original] (eng) + Sub (rus, eng) торрент без регистрации

Статистика раздачи
Размер:  20,55 GB   |    Скачан:  9 раз
Сидов:  1  [  0 KB/s  ]  
 
 
 
Автор Сообщение

leon030982

[] 

Под кайфом и в смятении / Dazed and Confused
Год выпуска: 1993
Страна: США
Жанр: драма, комедия
Продолжительность: 1:42:28
Перевод 1: Профессиональный (дублированный) Арк-ТВ
Перевод 2: Профессиональный (двухголосый закадровый) R5

Режиссер: Ричард Линклэйтер / Richard Linklater

В ролях: Милла Йовович, Бен Аффлек, Мэттью МакКонахи, Джейсон Лондон, Джои Лорен Эдамс, Шон Эндрюс (I), Рори Кокрейн, Адам Голдберг, Энтони Рэпп, Саша Дженсон, Марисса Рибизи, Дина Мартин, Мишель Бёрк, Коул Хаузер, Кристин Харнос, Уайли Уиггинс, Марк Вандермёлен, Эстебан Пауэлл, Джереми Фокс, Джейсон О. Смит, Кристин Инохоса, Паркер Поузи, Катрин Аврил Моррис, Никки Кэтт, Паркер Брукс, Зэк Тейлор, Джейкоб Джонс, Рик Мосер, Ким Кризан, Зуэй Грейф, Джулиус Теннон, Присцилла Кинсер, Эрика Геминдер, Хайди Ван Хорн, Кэтерин Эшер, Кэтлин Каннингэм, Ричард Диллард

Описание: На дворе убойные 70-е. Сегодня — последний урок в школе, а завтра начинается новая жизнь… Но это будет завтра, а сегодня новоиспеченные выпускники возьмут от жизни все! Они устраивают грандиозные проводы детства при участии «главных атрибутов» — безумного веселья — секса, наркотиков и рок-н-ролла…



Качество: BDRemux 1080p (The Criterion Collection)
Формат: MKV
Видео: AVC, 1920x1080 (16:9), 23.976 fps, 23.9 Mbps (0.481 bit/pixel)
Аудио 1: Russian AC3, 48 KHz, 2 ch, 192 kbps (DUB)
Аудио 2: Russian AC3, 48 KHz, 2 ch, 192 kbps (DVO)
Аудио 3: English / DTS-HD Master Audio / 5.1 / 48 kHz / 4 366 kbps / 24-bit (DTS Core: 5.1 / 48 kHz / 1509 kbps / 24-bit)
Субтитры: Русские, английские
Сравнение с изданием от Universal Home Entertainment -> http://caps-a-holic.com/c.php?d1=558&d2=557&c=158

За сведение дубляжа спасибо whip9З

Двухголоска и субтитры взяты из раздачи лорди74
Complete name : D:\Dazed.And.Confused.1993.BDRemux.Criterion.Collection.1080p.mkv
Format : Matroska
Format version : Version 4 / Version 2
File size : 20.5 GiB
Duration : 1 h 42 min
Overall bit rate mode : Variable
Overall bit rate : 28.7 Mb/s
Encoded date : UTC 2018-03-21 04:58:46
Writing application : mkvmerge v9.9.0 ('Pick Up') 32bit
Writing library : libebml v1.3.4 + libmatroska v1.4.5

Video
ID : 1
Format : AVC
Format/Info : Advanced Video Codec
Format profile : High@L4.1
Format settings : CABAC / 4 Ref Frames
Format settings, CABAC : Yes
Format settings, RefFrames : 4 frames
Codec ID : V_MPEG4/ISO/AVC
Duration : 1 h 42 min
Bit rate mode : Variable
Bit rate : 23.9 Mb/s
Maximum bit rate : 37.0 Mb/s
Width : 1 920 pixels
Height : 1 080 pixels
Display aspect ratio : 16:9
Frame rate mode : Constant
Frame rate : 23.976 (24000/1001) FPS
Color space : YUV
Chroma subsampling : 4:2:0
Bit depth : 8 bits
Scan type : Progressive
Bits/(Pixel*Frame) : 0.481
Stream size : 17.1 GiB (83%)
Language : English
Default : Yes
Forced : No

Audio #1
ID : 2
Format : AC-3
Format/Info : Audio Coding 3
Format settings, Endianness : Big
Codec ID : A_AC3
Duration : 1 h 42 min
Bit rate mode : Constant
Bit rate : 192 kb/s
Channel(s) : 2 channels
Channel positions : Front: L R
Sampling rate : 48.0 kHz
Frame rate : 31.250 FPS (1536 SPF)
Bit depth : 16 bits
Compression mode : Lossy
Stream size : 141 MiB (1%)
Title : DUB
Language : Russian
Service kind : Complete Main
Default : Yes
Forced : No

Audio #2
ID : 3
Format : AC-3
Format/Info : Audio Coding 3
Format settings, Endianness : Big
Codec ID : A_AC3
Duration : 1 h 42 min
Bit rate mode : Constant
Bit rate : 192 kb/s
Channel(s) : 2 channels
Channel positions : Front: L R
Sampling rate : 48.0 kHz
Frame rate : 31.250 FPS (1536 SPF)
Bit depth : 16 bits
Compression mode : Lossy
Stream size : 141 MiB (1%)
Title : DVO
Language : Russian
Service kind : Complete Main
Default : No
Forced : No

Audio #3
ID : 4
Format : DTS
Format/Info : Digital Theater Systems
Format profile : MA / Core
Mode : 16
Format settings, Endianness : Big
Codec ID : A_DTS
Duration : 1 h 42 min
Bit rate mode : Variable / Constant
Bit rate : 4 366 kb/s / 1 509 kb/s
Channel(s) : 6 channels
Channel positions : Front: L C R, Side: L R, LFE
Sampling rate : 48.0 kHz
Frame rate : 93.750 FPS (512 SPF)
Bit depth : 24 bits
Compression mode : Lossless / Lossy
Stream size : 3.12 GiB (15%)
Language : English
Default : No
Forced : No

Text #1
ID : 5
Format : UTF-8
Codec ID : S_TEXT/UTF8
Codec ID/Info : UTF-8 Plain Text
Duration : 1 h 33 min
Bit rate : 81 b/s
Count of elements : 936
Stream size : 55.7 KiB (0%)
Language : Russian
Default : No
Forced : No

Text #2
ID : 6
Format : PGS
Muxing mode : zlib
Codec ID : S_HDMV/PGS
Codec ID/Info : Picture based subtitle format used on BDs/HD-DVDs
Duration : 1 h 41 min
Bit rate : 35.3 kb/s
Count of elements : 3659
Stream size : 25.7 MiB (0%)
Language : English
Default : No
Forced : No



Скачать Под.кайфом.и.в.смятении.Dazed.and.Confused.(Ричард.Линклэйтер.Richard.Linklater).[1993.драма.комедия.BDRemux].[1080p].[Dub].+.[DVO].+.[Original].(eng).+.Sub.(rus.eng).torrent без регистрации
Золото ЗОЛОТАЯ РАЗДАЧА! СКАЧАННОЕ НЕ ЗАСЧИТЫВАЕТСЯ! Золото
Дата: Зарегистрирован   [ Тип: внутренний ] Как тут cкачать?
MAGNET ссылка
MAGNET ссылка


Скачать .torrent

52 KB

Статус: проверено DHT
Скачан: торрент - 9 раз, раздача полностью - 2 раз
Размер: 20,55 GB
Оценка:  - (Голосов: 0)
Поблагодарили: 1
Поделиться ссылкой на эту раздачу с друзьями:
В контактеFacebookОдноклассникиTwitterLivejournalМой МирLiveinternet
 

 

Badmotherfucker

[] 

leon030982
bt ag
 
Показать сообщения:    


Вы не можете начинать темы
Вы не можете отвечать на сообщения
Вы не можете редактировать свои сообщения
Вы не можете удалять свои сообщения
Вы не можете голосовать в опросах
Вы не можете прикреплять файлы к сообщениям
Вы можете скачивать файлы