Loading...
Error

Скачать Еще люблю, еще надеюсь... (Николай Лырчиков) [1984, драма, DVDRip-AVC] торрент без регистрации

Статистика раздачи
Размер:  1,3 GB   |    Скачан:  38 раз
Сидов:  1  [  0 KB/s  ]  
 
 
 
Автор Сообщение

Marsianka

[] 

Еще люблю еще надеюсь

Страна: СССР
Жанр: драма
Год выпуска: 1984
Продолжительность: 01:16:43
Перевод: Не требуется
Режиссер: Николай Лырчиков
В ролях: Евгений Евстигнеев, Тамара Сёмина, Вячеслав Невинный, Валентина Талызина, Марина Левтова,
Константин Лавроненко, Борис Новиков, Лилия Евстигнеева, Евгений Тетервов, Людмила Гладунко

Описание: Всю свою жизнь герой фильма любил одну женщину. Но она замужем, мать взрослых детей, бабушка.
С ее замужеством он смирился и был все эти годы преданным другом.
Пройдет время — и однажды в новогодний вечер она постучит в его дверь…



Кодек: х264
Качество: DVDRip-AVC
Видео: MPEG-4 AVC, 688х448@734x448, 25 fps, 2200 Кбит/с
Аудио: АС3, 2h, 192 Кбит/с
Субтитры: Нет
Главы: Есть

x264 [info]: frame I:600 Avg QP:17.84 size: 57419
x264 [info]: frame P:25510 Avg QP:20.24 size: 29152
x264 [info]: frame B:88965 Avg QP:22.03 size: 5480

Общее
Уникальный идентификатор : 204242238969512128577037049654197388936 (0x99A79FD84922E702BE65901A15E08688)
Полное имя : E:Мои рипыЕще люблю еще надеюсь. 1984_DVDRip-AVC_KORSAR.mkv
Формат : Matroska
Версия формата : Version 2
Размер файла : 1,30 Гбайт
Продолжительность : 1 ч. 16 м.
Общий поток : 2425 Кбит/сек
Дата кодирования : UTC 2018-02-06 21:22:38
Программа кодирования : mkvmerge v5.8.0 ('No Sleep / Pillow') built on Sep 2 2012 15:37:04
Библиотека кодирования : libebml v1.2.3 + libmatroska v1.3.0

Видео
Идентификатор : 1
Формат : AVC
Формат/Информация : Advanced Video Codec
Профиль формата : High@L4.1
Настройки формата : CABAC / 15 Ref Frames
Параметр CABAC формата : Да
Параметр RefFrames формата : 15 кадров
Идентификатор кодека : V_MPEG4/ISO/AVC
Продолжительность : 1 ч. 16 м.
Битрейт : 2200 Кбит/сек
Ширина : 688 пикселей
Высота : 448 пикселей
Соотношение сторон : 16:10
Соотношение сторон в оригинале : 16:10
Режим частоты кадров : Постоянный
Частота кадров : 25,000 кадров/сек
Цветовое пространство : YUV
Субдискретизация насыщенности : 4:2:0
Битовая глубина : 8 бит
Тип развёртки : Прогрессивная
Бит/(Пиксели*Кадры) : 0.286
Размер потока : 1,15 Гбайт (89%)
Библиотека кодирования : x264 core 152 r2851kMod ba24899
Настройки программы : cabac=1 / ref=15 / deblock=1:-2:-1 / analyse=0x3:0x133 / me=umh / subme=11 / psy=1 / fade_compensate=0.00 / psy_rd=1.05:0.10 / mixed_ref=1 / me_range=48 / chroma_me=1 / trellis=2 / 8x8dct=1 / cqm=0 / deadzone=21,11 / fast_pskip=0 / chroma_qp_offset=-3 / threads=12 / lookahead_threads=2 / sliced_threads=0 / nr=0 / decimate=0 / interlaced=0 / bluray_compat=0 / constrained_intra=0 / bframes=8 / b_pyramid=2 / b_adapt=2 / b_bias=0 / direct=3 / weightb=1 / open_gop=0 / weightp=2 / keyint=250 / keyint_min=25 / scenecut=40 / intra_refresh=0 / rc_lookahead=40 / rc=2pass / mbtree=0 / bitrate=2200 / ratetol=1.0 / qcomp=0.60 / qpmin=0 / qpmax=39 / qpstep=4 / cplxblur=20.0 / qblur=0.5 / vbv_maxrate=50000 / vbv_bufsize=62500 / nal_hrd=none / filler=0 / ip_ratio=1.25 / pb_ratio=1.30 / aq=1:1.00
Язык : English
Default : Да
Forced : Нет
Цветовой диапазон : Limited
Основные цвета : BT.601 PAL
Характеристики трансфера : BT.470 System B, BT.470 System G
Коэффициенты матрицы : BT.470 System B, BT.470 System G

Аудио
Идентификатор : 2
Формат : AC-3
Формат/Информация : Audio Coding 3
Параметр Endianness формата : Big
Идентификатор кодека : A_AC3
Продолжительность : 1 ч. 16 м.
Вид битрейта : Постоянный
Битрейт : 224 Кбит/сек
Каналы : 2 канала
Расположение каналов : Front: L R
Частота : 48,0 КГц
Частота кадров : 31,250 кадров/сек (1536 SPF)
Битовая глубина : 16 бит
Метод сжатия : С потерями
Размер потока : 123 Мбайт (9%)
Язык : Russian
Default : Да
Forced : Нет

Меню
00:00:00.000 : en:Chapter 1
00:04:55.560 : en:Chapter 2
00:09:29.960 : en:Chapter 3
00:17:46.920 : en:Chapter 4
00:24:46.520 : en:Chapter 5
00:29:08.960 : en:Chapter 6
00:37:13.160 : en:Chapter 7
00:41:37.160 : en:Chapter 8
00:48:59.960 : en:Chapter 9
00:56:03.240 : en:Chapter 10
01:03:31.360 : en:Chapter 11
01:08:31.560 : en:Chapter 12
01:16:42.600 : en:Chapter 13



Скачать Еще.люблю.еще.надеюсь.(Николай.Лырчиков).[1984.драма.DVDRip-AVC].torrent без регистрации
Золото ЗОЛОТАЯ РАЗДАЧА! СКАЧАННОЕ НЕ ЗАСЧИТЫВАЕТСЯ! Золото
Дата: Зарегистрирован   [ Тип: внутренний ] Как тут cкачать?
MAGNET ссылка
MAGNET ссылка


Скачать .torrent

14 KB

Статус: проверено DHT
Скачан: торрент - 38 раз, раздача полностью - 3 раз
Размер: 1,3 GB
Оценка:  - (Голосов: 0)
Поблагодарили: 0
Поделиться ссылкой на эту раздачу с друзьями:
В контактеFacebookОдноклассникиTwitterLivejournalМой МирLiveinternet
 

 
Показать сообщения:    


Вы не можете начинать темы
Вы не можете отвечать на сообщения
Вы не можете редактировать свои сообщения
Вы не можете удалять свои сообщения
Вы не можете голосовать в опросах
Вы не можете прикреплять файлы к сообщениям
Вы можете скачивать файлы