Loading...
Error

Скачать Астрал 4: Последний ключ / Insidious: The Last Key (Адам Робител) [2018, ужасы, триллер, детектив, HDRip-AVC] [Dub (лицензия iTunes)]+[Eng]+[Sub Rus, Eng] торрент без регистрации

Статистика раздачи
Размер:  2,03 GB   |    Скачан:  90 раз
Сидов:  1  [  0 KB/s  ]  
 
 
 
Автор Сообщение

МихаНЕзатор

[] 

Информация о фильме
Название: Астрал 4: Последний ключ
Оригинальное название: Insidious: The Last Key
Год выхода: 2018
Выпущено: США, Канада / Blumhouse Productions
Жанр: ужасы, триллер, детектив
Режиссер: Адам Робител / Adam Robitel

В ролях: Лин Шэй, Ли Уоннелл, Энгус Сэмпсон, Кирк Асеведо, Кейтлин Джерард, Спенсер Лок, Джош Стюарт, Тесса Феррер, Алек Рид, Ава Колкер

О фильме: Новая глава истории об экстрасенсе, которая умеет разговаривать с мертвыми. Детство и Элизы было трудным — жестокий отец считал, что девочка придумывает истории о призраках, поэтому бил её и запирал в подвале. Однажды сидя в темном подвале, Элиза начинает общаться с коварным призраком, который убеждает её открыть дверь. Вырвавшееся наружу зло тут же убивает мать девочки.
Много лет спустя Элиза всё ещё пытается восстановить в памяти события той ужасной ночи, когда получает просьбу о помощи. Мужчину одолели призраки, и живёт он в том самом доме, где прошло детство Элизы.

|

Продолжительность: 01:43:24
Перевод: Профессиональный (полное дублирование)
Субтитры: Русские (форс, полные), Английские
Оригинальная аудиодорожка: Английская
Навигация по главам: Есть (16 глав)

Файл
Качество: HDRip-AVC [Insidious.The.Last.Key.2018.1080p.BluRay.x264-DRONES]
Формат: MKV
Видео кодек: x264
Аудио кодек: AC3
Видео: 1152x482 (2.40:1), 23.976 fps, x264 ~1922 kbps avg, 0.144 bit/pixel
Аудио #1: 48 kHz, AC3 Dolby Digital, 3/2 (L,C,R,l,r) + LFE ch, ~384.00 kbps avg (RUS) - iTunes Russia
Аудио #2: 48 kHz, AC3 Dolby Digital, 3/2 (L,C,R,l,r) + LFE ch, ~448.00 kbps avg (ENG)
Формат субтитров: Softsub (.srt*)

Общее
Полное имя : D:Astral_4_2018_HDRip-AVC_iTunes_by_Dalemake.mkv
Формат : Matroska
Версия формата : Version 4 / Version 2
Размер файла : 2,03 Гбайт
Продолжительность : 1 ч. 43 м.
Общий поток : 2810 Кбит/сек
Название фильма : [Insidious_The_Last_Key_2018_All Films_by Dalemake]
Дата кодирования : UTC 2018-03-20 16:43:30
Программа кодирования : mkvmerge v7.8.0 ('River Man') 32bit built on Apr 3 2015 12:11:22
Библиотека кодирования : libebml v1.3.1 + libmatroska v1.4.2
DURATION : 01:34:31.338000000
NUMBER_OF_FRAMES : 835
NUMBER_OF_BYTES : 24192
_STATISTICS_WRITING_APP : mkvmerge v7.8.0 ('River Man') 32bit built on Apr 3 2015 12:11:22
_STATISTICS_WRITING_DATE_UTC : 2018-03-20 16:43:30
_STATISTICS_TAGS : BPS DURATION NUMBER_OF_FRAMES NUMBER_OF_BYTES

Видео
Идентификатор : 1
Формат : AVC
Формат/Информация : Advanced Video Codec
Профиль формата : High@L4.1
Параметр CABAC формата : Да
Параметр ReFrames формата : 10 кадров
Идентификатор кодека : V_MPEG4/ISO/AVC
Продолжительность : 1 ч. 43 м.
Битрейт : 1922 Кбит/сек
Ширина : 1152 пикселя
Высота : 482 пикселя
Соотношение сторон : 2,40:1
Частота кадров : 23,976 кадра/сек
Цветовое пространство : YUV
Субдискретизация насыщенности : 4:2:0
Битовая глубина : 8 бит
Тип развёртки : Прогрессивная
Бит/(Пиксели*Кадры) : 0.144
Размер потока : 1,39 Гбайт (68%)
Заголовок : [Insidious_The_Last_Key_2018_All Films_by Dalemake]
Библиотека кодирования : x264 core 152 r2851kMod ba24899
Настройки программы : cabac=1 / ref=10 / deblock=1:-2:-2 / analyse=0x3:0x133 / me=umh / subme=10 / psy=1 / fade_compensate=0.00 / psy_rd=1.00:0.00 / mixed_ref=1 / me_range=48 / chroma_me=1 / trellis=2 / 8x8dct=1 / cqm=0 / deadzone=21,11 / fast_pskip=1 / chroma_qp_offset=-4 / threads=6 / lookahead_threads=1 / sliced_threads=0 / nr=0 / decimate=0 / interlaced=0 / bluray_compat=0 / constrained_intra=0 / bframes=9 / b_pyramid=2 / b_adapt=2 / b_bias=0 / direct=1 / weightb=1 / open_gop=0 / weightp=2 / keyint=250 / keyint_min=23 / scenecut=40 / intra_refresh=0 / rc_lookahead=60 / rc=crf / mbtree=0 / crf=17.8000 / qcomp=0.60 / qpmin=0 / qpmax=69 / qpstep=4 / vbv_maxrate=50000 / vbv_bufsize=62500 / crf_max=0.0 / nal_hrd=none / filler=0 / ip_ratio=1.40 / pb_ratio=1.35 / aq=1:1.00
Default : Да
Forced : Нет

Аудио #1
Идентификатор : 2
Формат : AC-3
Формат/Информация : Audio Coding 3
Расширение режима : CM (complete main)
Параметр Endianness формата : Big
Идентификатор кодека : A_AC3
Продолжительность : 1 ч. 43 м.
Вид битрейта : Постоянный
Битрейт : 384 Кбит/сек
Каналы : 6 каналов
Расположение каналов : Front: L C R, Side: L R, LFE
Частота : 48,0 КГц
Битовая глубина : 16 бит
Метод сжатия : С потерями
Размер потока : 284 Мбайт (14%)
Заголовок : Dub - iTunes Russia
Язык : Russian
Default : Да
Forced : Нет

Аудио #2
Идентификатор : 3
Формат : AC-3
Формат/Информация : Audio Coding 3
Расширение режима : CM (complete main)
Параметр Endianness формата : Big
Идентификатор кодека : A_AC3
Продолжительность : 1 ч. 43 м.
Вид битрейта : Постоянный
Битрейт : 448 Кбит/сек
Каналы : 6 каналов
Расположение каналов : Front: L C R, Side: L R, LFE
Частота : 48,0 КГц
Битовая глубина : 16 бит
Метод сжатия : С потерями
Размер потока : 331 Мбайт (16%)
Заголовок : Original
Язык : English
Default : Нет
Forced : Нет

Текст #1
Идентификатор : 4
Формат : UTF-8
Идентификатор кодека : S_TEXT/UTF8
Идентификатор кодека/Информация : UTF-8 Plain Text
Заголовок : Forced
Язык : Russian
Default : Да
Forced : Да

Текст #2
Идентификатор : 5
Формат : UTF-8
Идентификатор кодека : S_TEXT/UTF8
Идентификатор кодека/Информация : UTF-8 Plain Text
Заголовок : Full
Язык : Russian
Default : Нет
Forced : Нет

Текст #3
Идентификатор : 6
Формат : UTF-8
Идентификатор кодека : S_TEXT/UTF8
Идентификатор кодека/Информация : UTF-8 Plain Text
Заголовок : Full
Язык : English
Default : Нет
Forced : Нет

Меню
00:00:00.000 : en:00:00:00.000
00:16:21.397 : en:00:16:21.397
00:19:55.111 : en:00:19:55.111
00:22:29.056 : en:00:22:29.056
00:29:03.617 : en:00:29:03.617
00:36:24.307 : en:00:36:24.307
00:44:05.685 : en:00:44:05.685
00:54:14.168 : en:00:54:14.168
00:57:21.855 : en:00:57:21.855
01:02:08.183 : en:01:02:08.183
01:05:17.664 : en:01:05:17.664
01:10:17.964 : en:01:10:17.964
01:16:58.239 : en:01:16:58.239
01:22:11.593 : en:01:22:11.593
01:29:49.467 : en:01:29:49.467
01:34:34.252 : en:01:34:34.252



Скачать Астрал.4.Последний.ключ.Insidious.The.Last.Key.(Адам.Робител).[2018.ужасы.триллер.детектив.HDRip-AVC].[Dub.(лицензия.iTunes)]+[Eng]+[Sub.Rus.Eng].torrent без регистрации
Золото ЗОЛОТАЯ РАЗДАЧА! СКАЧАННОЕ НЕ ЗАСЧИТЫВАЕТСЯ! Золото
Дата: Зарегистрирован   [ Тип: внутренний ] Как тут cкачать?
MAGNET ссылка
MAGNET ссылка


Скачать .torrent

11 KB

Статус: проверено DHT
Скачан: торрент - 90 раз, раздача полностью - 199 раз
Размер: 2,03 GB
Оценка:  5 (Голосов: 1)
Поблагодарили: 4
Поделиться ссылкой на эту раздачу с друзьями:
В контактеFacebookОдноклассникиTwitterLivejournalМой МирLiveinternet
 

 
Показать сообщения:    


Вы не можете начинать темы
Вы не можете отвечать на сообщения
Вы не можете редактировать свои сообщения
Вы не можете удалять свои сообщения
Вы не можете голосовать в опросах
Вы не можете прикреплять файлы к сообщениям
Вы можете скачивать файлы