Loading...
Error

Скачать Изображая Бога / Playing God (Энди Уилсон) [1997, триллер, драма, криминал, BDRip] [720p] [DVO]+[MVO]x2+[AVO]+[Eng]+[Sub Rus, Eng]x2 торрент без регистрации

Статистика раздачи
Размер:  6,62 GB   |    Скачан:  39 раз
Сидов:  1  [  0 KB/s  ]  
 
 
 
Автор Сообщение

Marsianka

[] 

Информация о фильме
Название: Изображая Бога
Оригинальное название: Playing God
Год выхода: 1997
Жанр: триллер, драма, криминал
Режиссер: Энди Уилсон
В ролях: Дэвид Духовны, Тимоти Хаттон, Анджелина Джоли, Майкл Масси, Петер Стормаре, Эндрю Тирнан, Гари Дурдан, Джон Хоукс, Уилл Стюарт, Филип Мун

О фильме:
Блестящего хирурга лишают лицензии за употребление наркотиков — у него под ножом умерла пациентка. Избрав себе в качестве утешителя синтетический заменитель героина, он большую часть времени пребывает в состоянии, позволяющем забыть о прошлом и будущем. При покупке очередной дозы в баре, он становится свидетелем бандитской разборки и спасает жизнь одному из раненых, применив свой талант хирурга. Глава одной из группировок предлагает доктору практиковать нелегально. 10000 за операцию — а пациентов хватает — оказываются веским аргументом, да и у самого хирурга руки тоскуют по скальпелю. Он соглашается…



Страна: США
Студия: Beacon Communications LLC, Beacon Pictures, Club Pictures, Touchstone Pictures
Продолжительность: 01:34:05
Профессиональный (двухголосый, закадровый) R5 + Профессиональный (многоголосый, закадровый) РТР + Профессиональный (многоголосый, закадровый) ? + Авторский (одноголосый, закадровый) Ю.Сербин
Релиз:

Файл
Качество: BDRip 720p
Формат: Matroska
Видео: 1280x720 at 23.976 fps, x264@L4.1, ~7271 kbps
Аудио#1: Russian: 48 kHz, AC3, 2/0 (L,R) ch, ~192 kbps avg |Двухголосый закадровый, R5|
Аудио#2: Russian: 48 kHz, AC3, 2/0 (L,R) ch, ~192 kbps avg |Многоголосый закадровый, РТР|
Аудио#3: Russian: 48 kHz, AC3, 2/0 (L,R) ch, ~192 kbps avg |Многоголосый закадровый, ?|
Аудио#4: Russian: 48 kHz, DTS, 2/0 (L,R) ch, ~512 kbps avg |Авторский, Ю.Сербин|
Аудио#5: English: 48 kHz, DTS, 2/0 (L,R) ch, ~1509 kbps avg
Субтитры: Russian, English
***Сохранены оригинальные главы.
Это были первые съемки Джоли сразу после свадьбы с Джони Ли Миллером.
Фильм был готов в 1995 году, однако при показе тестовой аудитории он вызвал негативную реакцию, из-за чего его не выпускали на экраны до 1997 года.
Трейлер фильма содержит короткие эпизоды сексуальной сцены с Дэвидом Духовны и Анджелиной Джоли. Позже актриса подтвердила, что для фильма было снято две сексуальные сцены, но их вырезали из окончательного монтажа.
Общее
Уникальный идентификатор : 254573720657589961598485372131619512350 (0xBF851D7B93289EA49350D3F46046201E)
Полное имя : Playing God.1997.720p.Rus.Eng.HDCLUB.mkv
Формат : Matroska
Версия формата : Version 4 / Version 2
Размер файла : 6,62 Гбайт
Продолжительность : 1 ч. 34 м.
Общий поток : 10,1 Мбит/сек
Дата кодирования : UTC 2013-04-17 17:34:32
Программа кодирования : mkvmerge v6.0.0 ('Coming Up For Air') built on Jan 20 2013 09:52:00
Библиотека кодирования : libebml v1.3.0 + libmatroska v1.4.0

Видео
Идентификатор : 1
Формат : AVC
Формат/Информация : Advanced Video Codec
Профиль формата : High@L4.1
Параметр CABAC формата : Да
Параметр ReFrames формата : 11 кадров
Идентификатор кодека : V_MPEG4/ISO/AVC
Продолжительность : 1 ч. 34 м.
Битрейт : 7271 Кбит/сек
Ширина : 1280 пикселей
Высота : 720 пикселей
Соотношение сторон : 16:9
Режим частоты кадров : Постоянный
Частота кадров : 23,976 кадра/сек
Цветовое пространство : YUV
Субдискретизация насыщенности : 4:2:0
Битовая глубина : 8 бит
Тип развёртки : Прогрессивная
Бит/(Пиксели*Кадры) : 0.329
Размер потока : 4,78 Гбайт (72%)
Библиотека кодирования : x264 core 130 r2273kMod b3065e6
Настройки программы : cabac=1 / ref=11 / deblock=1:-3:-3 / analyse=0x3:0x113 / me=umh / subme=11 / psy=1 / fade_compensate=0.00 / psy_rd=1.05:0.05 / mixed_ref=1 / me_range=48 / chroma_me=1 / trellis=2 / 8x8dct=1 / cqm=0 / deadzone=21,11 / fast_pskip=1 / chroma_qp_offset=-3 / threads=6 / lookahead_threads=1 / sliced_threads=0 / nr=0 / decimate=1 / interlaced=0 / bluray_compat=0 / constrained_intra=0 / bframes=11 / b_pyramid=2 / b_adapt=2 / b_bias=0 / direct=3 / weightb=1 / open_gop=0 / weightp=2 / keyint=240 / keyint_min=23 / scenecut=40 / intra_refresh=0 / rc_lookahead=40 / rc=crf / mbtree=0 / crf=17.9000 / qcomp=0.70 / qpmin=0 / qpmax=69 / qpstep=4 / vbv_maxrate=50000 / vbv_bufsize=62500 / crf_max=0.0 / nal_hrd=none / ip_ratio=1.40 / pb_ratio=1.30 / aq=3:0.80
Язык : English
Default : Да
Forced : Нет
Коэффициенты матрицы : BT.709

Аудио #1
Идентификатор : 2
Формат : AC-3
Формат/Информация : Audio Coding 3
Расширение режима : CM (complete main)
Параметр Endianness формата : Big
Идентификатор кодека : A_AC3
Продолжительность : 1 ч. 34 м.
Вид битрейта : Постоянный
Битрейт : 192 Кбит/сек
Каналы : 2 канала
Расположение каналов : Front: L R
Частота : 48,0 КГц
Битовая глубина : 16 бит
Метод сжатия : С потерями
Размер потока : 129 Мбайт (2%)
Заголовок : Двухголосый закадровый, R5
Язык : Russian
Default : Да
Forced : Нет

Аудио #2
Идентификатор : 3
Формат : AC-3
Формат/Информация : Audio Coding 3
Расширение режима : CM (complete main)
Параметр Endianness формата : Big
Идентификатор кодека : A_AC3
Продолжительность : 1 ч. 34 м.
Вид битрейта : Постоянный
Битрейт : 192 Кбит/сек
Каналы : 2 канала
Расположение каналов : Front: L R
Частота : 48,0 КГц
Битовая глубина : 16 бит
Метод сжатия : С потерями
Размер потока : 129 Мбайт (2%)
Заголовок : Многоголосый закадровый, РТР
Язык : Russian
Default : Нет
Forced : Нет

Аудио #3
Идентификатор : 4
Формат : AC-3
Формат/Информация : Audio Coding 3
Расширение режима : CM (complete main)
Параметр Endianness формата : Big
Идентификатор кодека : A_AC3
Продолжительность : 1 ч. 34 м.
Вид битрейта : Постоянный
Битрейт : 192 Кбит/сек
Каналы : 2 канала
Расположение каналов : Front: L R
Частота : 48,0 КГц
Битовая глубина : 16 бит
Метод сжатия : С потерями
Размер потока : 129 Мбайт (2%)
Заголовок : Многоголосый закадровый
Язык : Russian
Default : Нет
Forced : Нет

Аудио #4
Идентификатор : 5
Формат : DTS
Формат/Информация : Digital Theater Systems
Режим : 16
Параметр Endianness формата : Big
Идентификатор кодека : A_DTS
Продолжительность : 1 ч. 34 м.
Вид битрейта : Постоянный
Битрейт : 510 Кбит/сек
Каналы : 2 канала
Расположение каналов : Front: L R
Частота : 48,0 КГц
Битовая глубина : 16 бит
Метод сжатия : С потерями
Размер потока : 343 Мбайт (5%)
Заголовок : Одноголосый закадровый, Ю. Сербин
Язык : Russian
Default : Нет
Forced : Нет

Аудио #5
Идентификатор : 6
Формат : DTS
Формат/Информация : Digital Theater Systems
Режим : 16
Параметр Endianness формата : Big
Идентификатор кодека : A_DTS
Продолжительность : 1 ч. 34 м.
Вид битрейта : Постоянный
Битрейт : 1509 Кбит/сек
Каналы : 2 канала
Расположение каналов : Front: L R
Частота : 48,0 КГц
Битовая глубина : 24 бит
Метод сжатия : С потерями
Размер потока : 1016 Мбайт (15%)
Язык : English
Default : Нет
Forced : Нет

Текст #1
Идентификатор : 7
Формат : UTF-8
Идентификатор кодека : S_TEXT/UTF8
Идентификатор кодека/Информация : UTF-8 Plain Text
Язык : Russian
Default : Нет
Forced : Нет

Текст #2
Идентификатор : 8
Формат : UTF-8
Идентификатор кодека : S_TEXT/UTF8
Идентификатор кодека/Информация : UTF-8 Plain Text
Язык : English
Default : Нет
Forced : Нет

Меню
00:00:00.000 : en:00:00:00.000
00:06:23.716 : en:00:06:23.716
00:12:12.189 : en:00:12:12.189
00:18:04.583 : en:00:18:04.583
00:24:52.449 : en:00:24:52.449
00:32:54.555 : en:00:32:54.555
00:39:55.059 : en:00:39:55.059
00:43:32.985 : en:00:43:32.985
00:52:50.333 : en:00:52:50.333
01:01:25.264 : en:01:01:25.264
01:09:56.942 : en:01:09:56.942
01:19:55.624 : en:01:19:55.624



Скачать Изображая.Бога.Playing.God.(Энди.Уилсон).[1997.триллер.драма.криминал.BDRip].[720p].[DVO]+[MVO]x2+[AVO]+[Eng]+[Sub.Rus.Eng]x2.torrent без регистрации
Золото ЗОЛОТАЯ РАЗДАЧА! СКАЧАННОЕ НЕ ЗАСЧИТЫВАЕТСЯ! Золото
Дата: Зарегистрирован   [ Тип: внутренний ] Как тут cкачать?
MAGNET ссылка
MAGNET ссылка


Скачать .torrent

17 KB

Статус: проверено DHT
Скачан: торрент - 39 раз, раздача полностью - 5 раз
Размер: 6,62 GB
Оценка:  - (Голосов: 0)
Поблагодарили: 2
Поделиться ссылкой на эту раздачу с друзьями:
В контактеFacebookОдноклассникиTwitterLivejournalМой МирLiveinternet
 

 
Показать сообщения:    


Вы не можете начинать темы
Вы не можете отвечать на сообщения
Вы не можете редактировать свои сообщения
Вы не можете удалять свои сообщения
Вы не можете голосовать в опросах
Вы не можете прикреплять файлы к сообщениям
Вы можете скачивать файлы