Loading...
Error

Скачать Дураки умирают по пятницам (Рудольф Фрунтов) [1990, боевик, криминал, DVDRip-AVC] торрент без регистрации

Статистика раздачи
Размер:  2,25 GB   |    Скачан:  48 раз
Сидов:  1  [  0 KB/s  ]  
 
 
 
Автор Сообщение

Marsianka

[] 

Информация о фильме
Название: Дураки умирают по пятницам
Год выхода: 1990
Жанр: боевик, криминал
Режиссер: Рудольф Фрунтов
В ролях: Василий Мищенко, Оксана Фандера, Игорь Янковский, Маргарита Сергеечева, Михаил Козаков, Римма Маркова, Андрей Гусев, Сергей Чурбаков, Наталья Позднякова, Евгений Дегтяренко

О фильме: Офицер милиции Андрей выходит из тюрьмы, где провел три года, осужденный по ложному обвинению. Придя, в гости к старому другу, он неожиданно натыкается на его труп. Приходится вновь спасаться от милиции.

События нарастают стремительно. Андрей понимает, что за ним идет настоящая охота. Кому опять понадобилась его жизнь и свобода? На этот вопрос не может ответить ни его старый друг, майор милиции, ни Яна — внезапно ворвавшаяся в его жизнь любовь и надежда.



Страна: СССР
Студия: Киностудия «Бояна», Болгария Фильм, Госкино, Кинофонд СССР, Паритет, Сектор-Ф
Продолжительность: 01:30:44

Файл
Кодек: х264
Качество: DVDRip-AVC
Видео: MPEG-4 AVC, 690х574@736x574, 25 fps, 3100 Кбит/с
Аудио #1: AC3, 6 ch, 448 Кбит/с

x264 [info]: frame I:821 Avg QP:16.13 size: 70726
x264 [info]: frame P:31873 Avg QP:18.68 size: 33768
x264 [info]: frame B:103409 Avg QP:20.64 size: 9433

Общее
Уникальный идентификатор : 228281519191928888189684471223059061196 (0xABBD6BDDFFE37B20B8D4DCECB53D99CC)
Полное имя : E:Мои рипыДураки умирают по пятницам 1990_DVDRip-AVC_KORSAR.mkv
Формат : Matroska
Версия формата : Version 2
Размер файла : 2,25 Гбайт
Продолжительность : 1 ч. 30 м.
Общий поток : 3550 Кбит/сек
Название фильма : Дураки умирают по пятницам 1990_KORSAR
Дата кодирования : UTC 2018-01-25 16:57:19
Программа кодирования : mkvmerge v5.8.0 ('No Sleep / Pillow') built on Sep 2 2012 15:37:04
Библиотека кодирования : libebml v1.2.3 + libmatroska v1.3.0

Видео
Идентификатор : 1
Формат : AVC
Формат/Информация : Advanced Video Codec
Профиль формата : High@L4.1
Настройки формата : CABAC / 16 Ref Frames
Параметр CABAC формата : Да
Параметр RefFrames формата : 16 кадров
Идентификатор кодека : V_MPEG4/ISO/AVC
Продолжительность : 1 ч. 30 м.
Битрейт : 3100 Кбит/сек
Ширина : 690 пикселей
Высота : 574 пикселя
Соотношение сторон : 1,282
Режим частоты кадров : Постоянный
Частота кадров : 25,000 кадров/сек
Цветовое пространство : YUV
Субдискретизация насыщенности : 4:2:0
Битовая глубина : 8 бит
Тип развёртки : Прогрессивная
Бит/(Пиксели*Кадры) : 0.313
Размер потока : 1,92 Гбайт (85%)
Библиотека кодирования : x264 core 152 r2851kMod ba24899
Настройки программы : cabac=1 / ref=16 / deblock=1:-2:-1 / analyse=0x3:0x133 / me=umh / subme=11 / psy=1 / fade_compensate=0.00 / psy_rd=1.05:0.09 / mixed_ref=1 / me_range=48 / chroma_me=1 / trellis=2 / 8x8dct=1 / cqm=0 / deadzone=21,11 / fast_pskip=0 / chroma_qp_offset=-3 / threads=12 / lookahead_threads=2 / sliced_threads=0 / nr=0 / decimate=0 / interlaced=0 / bluray_compat=0 / constrained_intra=0 / bframes=9 / b_pyramid=2 / b_adapt=2 / b_bias=0 / direct=3 / weightb=1 / open_gop=0 / weightp=2 / keyint=250 / keyint_min=25 / scenecut=40 / intra_refresh=0 / rc_lookahead=40 / rc=2pass / mbtree=0 / bitrate=3100 / ratetol=1.0 / qcomp=0.60 / qpmin=0 / qpmax=39 / qpstep=4 / cplxblur=20.0 / qblur=0.5 / vbv_maxrate=50000 / vbv_bufsize=62500 / nal_hrd=none / filler=0 / ip_ratio=1.25 / pb_ratio=1.30 / aq=1:0.90
Язык : English
Default : Да
Forced : Нет
Цветовой диапазон : Limited
Основные цвета : BT.601 PAL
Характеристики трансфера : BT.470 System B, BT.470 System G
Коэффициенты матрицы : BT.470 System B, BT.470 System G

Аудио
Идентификатор : 2
Формат : AC-3
Формат/Информация : Audio Coding 3
Параметр Endianness формата : Big
Идентификатор кодека : A_AC3
Продолжительность : 1 ч. 30 м.
Вид битрейта : Постоянный
Битрейт : 448 Кбит/сек
Каналы : 6 каналов
Расположение каналов : Front: L C R, Side: L R, LFE
Частота : 48,0 КГц
Частота кадров : 31,250 кадров/сек (1536 SPF)
Битовая глубина : 16 бит
Метод сжатия : С потерями
Размер потока : 291 Мбайт (13%)
Язык : Russian
Default : Да
Forced : Нет
Релиз от:



Скачать Дураки.умирают.по.пятницам.(Рудольф.Фрунтов).[1990.боевик.криминал.DVDRip-AVC].torrent без регистрации
Золото ЗОЛОТАЯ РАЗДАЧА! СКАЧАННОЕ НЕ ЗАСЧИТЫВАЕТСЯ! Золото
Дата: Зарегистрирован   [ Тип: внутренний ] Как тут cкачать?
MAGNET ссылка
MAGNET ссылка


Скачать .torrent

12 KB

Статус: проверено DHT
Скачан: торрент - 48 раз, раздача полностью - 12 раз
Размер: 2,25 GB
Оценка:  - (Голосов: 0)
Поблагодарили: 2
Поделиться ссылкой на эту раздачу с друзьями:
В контактеFacebookОдноклассникиTwitterLivejournalМой МирLiveinternet
 

 
Показать сообщения:    


Вы не можете начинать темы
Вы не можете отвечать на сообщения
Вы не можете редактировать свои сообщения
Вы не можете удалять свои сообщения
Вы не можете голосовать в опросах
Вы не можете прикреплять файлы к сообщениям
Вы можете скачивать файлы