Loading...
Error

Скачать Море в огне (Леон Сааков) [1970, военный, SATRip-AVC] торрент без регистрации

Статистика раздачи
Размер:  2,57 GB   |    Скачан:  39 раз
Сидов:  2  [  0 KB/s  ]  
 
 
 
Автор Сообщение

Marsianka

[] 

Море в огне


Страна: СССР
Жанр: военный
Год выпуска: 1970
Продолжительность: 01:22:27 + 00:53:53
Перевод: Не требуется
Режиссер: Леон Сааков
В ролях: Григорий Антоненко, Николай Гринько, Ростислав Янковский, Всеволод Платов,
Владимир Кашпур, Константин Тыртов, Дальвин Щербаков, Сергей Ляхницкий, Юрий Соломин,
Ольга Остроумова, Николай Ерёменко (ст.), Всеволод Сафонов, Николай Гудзь,
Владлен Паулус, Николай Алексеев (II), Радий Афанасьев, Гиви Берикашвили, Борис Борисов,
Лариса Виккел, Юрий Горобец, Анатолий Грачёв, Геннадий Донягин, Гарри Дунц, Николай Иванов,
Эдуард Изотов, Эрвин Кнаусмюллер, Василий Корзун, Ирина Короткова, Геннадий Крашенинников,
Клара Лучко, Владимир Маренков, Ольга Маркина, Владимир Петченко, Гурам Пирцхалава,
Владимир Пицек, Николай Рушковский

Описание: Фильм воссоздает героическую эпопею обороны Севастополя в 1941—1942 годах.



Кодек: х264
Качество: SATRip-AVC
Видео: MPEG-4 AVC, 706х332@754x332, 682х316@728x316, 25 fps, 2500 Кбит/с
Аудио: АС3, 2h, 192 Кбит/с
Субтитры: Нет

Доп: За исходный DVB спасибо Cheef mate

x264 [info]: frame I:600 Avg QP:16.65 size: 57849
x264 [info]: frame P:28789 Avg QP:18.97 size: 34368
x264 [info]: frame B:94298 Avg QP:20.78 size: 5533

Общее
Уникальный идентификатор : 222524435053122232300478815905044017647 (0xA768A5B4511A1250BF83719EC924B1EF)
Полное имя : I:сссрМоре в огне 1970_SATRip-AVC_KORSARМоре в огне 1 серия 1970_SATRip-AVC_KORSAR.mkv
Формат : Matroska
Версия формата : Version 2
Размер файла : 1,55 Гбайт
Продолжительность : 1 ч. 22 м.
Общий поток : 2693 Кбит/сек
Дата кодирования : UTC 2018-03-23 15:18:55
Программа кодирования : mkvmerge v5.8.0 ('No Sleep / Pillow') built on Sep 2 2012 15:37:04
Библиотека кодирования : libebml v1.2.3 + libmatroska v1.3.0

Видео
Идентификатор : 1
Формат : AVC
Формат/Информация : Advanced Video Codec
Профиль формата : High@L4.1
Настройки формата : CABAC / 15 Ref Frames
Параметр CABAC формата : Да
Параметр RefFrames формата : 15 кадров
Идентификатор кодека : V_MPEG4/ISO/AVC
Продолжительность : 1 ч. 22 м.
Битрейт : 2500 Кбит/сек
Ширина : 706 пикселей
Высота : 332 пикселя
Соотношение сторон : 2,25:1
Режим частоты кадров : Постоянный
Частота кадров : 25,000 кадров/сек
Цветовое пространство : YUV
Субдискретизация насыщенности : 4:2:0
Битовая глубина : 8 бит
Тип развёртки : Прогрессивная
Бит/(Пиксели*Кадры) : 0.427
Размер потока : 1,41 Гбайт (91%)
Библиотека кодирования : x264 core 152 r2851kMod ba24899
Настройки программы : cabac=1 / ref=15 / deblock=1:-2:-2 / analyse=0x3:0x133 / me=umh / subme=11 / psy=1 / fade_compensate=0.00 / psy_rd=0.50:0.02 / mixed_ref=1 / me_range=48 / chroma_me=1 / trellis=2 / 8x8dct=1 / cqm=0 / deadzone=21,11 / fast_pskip=0 / chroma_qp_offset=-3 / threads=10 / lookahead_threads=1 / sliced_threads=0 / nr=0 / decimate=0 / interlaced=0 / bluray_compat=0 / constrained_intra=0 / bframes=9 / b_pyramid=2 / b_adapt=2 / b_bias=0 / direct=3 / weightb=1 / open_gop=0 / weightp=2 / keyint=250 / keyint_min=25 / scenecut=40 / intra_refresh=0 / rc_lookahead=40 / rc=2pass / mbtree=0 / bitrate=2500 / ratetol=1.0 / qcomp=0.60 / qpmin=0 / qpmax=39 / qpstep=4 / cplxblur=20.0 / qblur=0.5 / vbv_maxrate=50000 / vbv_bufsize=62500 / nal_hrd=none / filler=0 / ip_ratio=1.25 / pb_ratio=1.30 / aq=1:0.80
Язык : English
Default : Да
Forced : Нет
Цветовой диапазон : Limited
Основные цвета : BT.601 PAL
Характеристики трансфера : BT.470 System B, BT.470 System G
Коэффициенты матрицы : BT.470 System B, BT.470 System G

Аудио
Идентификатор : 2
Формат : AC-3
Формат/Информация : Audio Coding 3
Параметр Endianness формата : Big
Идентификатор кодека : A_AC3
Продолжительность : 1 ч. 22 м.
Вид битрейта : Постоянный
Битрейт : 192 Кбит/сек
Каналы : 2 канала
Расположение каналов : Front: L R
Частота : 48,0 КГц
Частота кадров : 31,250 кадров/сек (1536 SPF)
Битовая глубина : 16 бит
Метод сжатия : С потерями
Задержка видео : 21 мс.
Размер потока : 113 Мбайт (7%)
Default : Да
Forced : Нет



Скачать Море.в.огне.(Леон.Сааков).[1970.военный.SATRip-AVC].torrent без регистрации
Золото ЗОЛОТАЯ РАЗДАЧА! СКАЧАННОЕ НЕ ЗАСЧИТЫВАЕТСЯ! Золото
Дата: Зарегистрирован   [ Тип: внешний ] Как тут cкачать?
MAGNET ссылка
MAGNET ссылка


Скачать .torrent

14 KB

Статус: проверено DHT
Скачан: торрент - 39 раз, раздача полностью - 8 раз
Размер: 2,57 GB
Оценка:  - (Голосов: 0)
Поблагодарили: 0
Поделиться ссылкой на эту раздачу с друзьями:
В контактеFacebookОдноклассникиTwitterLivejournalМой МирLiveinternet
 

 
Показать сообщения:    


Вы не можете начинать темы
Вы не можете отвечать на сообщения
Вы не можете редактировать свои сообщения
Вы не можете удалять свои сообщения
Вы не можете голосовать в опросах
Вы не можете прикреплять файлы к сообщениям
Вы можете скачивать файлы