Loading...
Error

Скачать Убийство в Восточном экспрессе / Murder on the Orient Express (Кеннет Брана) [2017, Драма, криминал, детектив, BDRip][1080p] [Dub Лицензия] [R.G. GoldenShara] торрент без регистрации

Статистика раздачи
Размер:  4,37 GB   |    Скачан:  127 раз
Сидов:  6  [  0 KB/s  ]  
 
 
 
Автор Сообщение

Magnetto83

[] 


Убийство в Восточном экспрессе / Murder on the Orient Express


Год выпуска: 2017
Выпущено: США, Великобритания, Мальта, Канада | 20th Century Fox, Genre Films, Kinberg Genre
Жанр: Драма, криминал, детектив
Продолжительность: 01:53:56
Перевод: Профессиональный (полное дублирование) | Blu-ray CEE |
Субтитры: Русские (форсированные, полные), Английские (Full+SHD+SDH-Colored)
Навигация по главам: Сохранены оригинальные главы как на Blu-ray

Слоган: «Под подозрением каждый»

Режиссер: Кеннет Брана

В ролях: Кеннет Брана, Пенелопа Крус, Уиллем Дефо, Джуди Денч, Джонни Депп, Джош Гэд, Дерек Джекоби, Лесли Одом мл., Мишель Пфайффер, Дэйзи Ридли, Том Бейтман, Марван Кензари, Оливия Колман, Люси Бойнтон, Мануэль Рульфо

Описание: Эркюль Пуаро - величайший детектив в мире. Он бельгиец, любит измерять объем завтрака линейкой, невооруженным взглядом распознает мельчайшие шероховатости с достоверностью микроскопа и обладает скрытыми экстрасенсорными способностями. Очередное расследование ждет его в Лондоне, куда сыщик и направляется за казенный счет в теплом вагоне одного из самых комфортабельных поездов в Европе. Безмятежное путешествие в окружении милых, симпатичных попутчиков оборачивается бытовой поножовщиной при выключенном свете, закончившейся смертью одного из ее участников. Немного поломавшись для приличия, Пуаро берется в самые краткие сроки найти убийцу и распутать это гиблое дело, рискующее перерасти в одну из самых стильных и захватывающих загадок в его профессиональной карьере.



Возраст: 16+ (зрителям, достигшим 16 лет)
Рейтинг MPAA: PG-13 (детям до 13 лет просмотр нежелателен)

Качество: BDRip 1080p
Формат: MKV
Видео кодек: H.264
Аудио кодек: AC3
Видео: 1920x800 (2.40:1), 5038 Кбит/с, 23.976 fps
Аудио: Русский Dolby Digital 5.1 (448 Кбит/с)


x264 [info]: frame I:1026 Avg QP:17.05 size:209611
x264 [info]: frame P:32543 Avg QP:19.17 size: 51602
x264 [info]: frame B:130330 Avg QP:22.04 size: 18495
x264 [info]: consecutive B-frames: 1.3% 2.6% 6.6% 11.0% 13.1% 49.9% 7.8% 3.1% 4.6%
x264 [total]: encoded 163899 frames, 1.50 fps, 5037.86 kb/s



General
Complete name : G:\Видео\Мои Рипы 1080p\Кино-Хиты 2017\Убийство в Восточном экспрессе 2017 Dub Rus BDRip 1080p.mkv
Format : Matroska
Format version : Version 4 / Version 2
File size : 4.37 GiB
Duration : 1h 53mn
Overall bit rate : 5 488 Kbps
Movie name : Убийство в Восточном экспрессе 2017 Dub Rus BDRip 1080p By R.G. GoldenShara
Encoded date : UTC 2018-03-09 19:35:48
Writing application : mkvmerge v7.0.0 ('Where We Going') 64bit built on Jun 9 2014 15:16:27
Writing library : libebml v1.3.0 + libmatroska v1.4.1
Attachements : Cover
DURATION : 01:53:55.968000000
NUMBER_OF_FRAMES : 213624
NUMBER_OF_BYTES : 382814208
_STATISTICS_WRITING_APP : mkvmerge v7.0.0 ('Where We Going') 64bit built on Jun 9 2014 15:16:27
_STATISTICS_WRITING_DATE_UTC : 2018-03-09 19:35:48
_STATISTICS_TAGS : BPS DURATION NUMBER_OF_FRAMES NUMBER_OF_BYTES

Video
ID : 1
Format : AVC
Format/Info : Advanced Video Codec
Format profile : High@L4.1
Format settings, CABAC : Yes
Format settings, ReFrames : 5 frames
Codec ID : V_MPEG4/ISO/AVC
Duration : 1h 53mn
Bit rate : 5 038 Kbps
Width : 1 920 pixels
Height : 800 pixels
Display aspect ratio : 2.40:1
Frame rate mode : Constant
Frame rate : 23.976 fps
Color space : YUV
Chroma subsampling : 4:2:0
Bit depth : 8 bits
Scan type : Progressive
Bits/(Pixel*Frame) : 0.137
Stream size : 3.92 GiB (90%)
Title : Убийство в Восточном экспрессе 2017 BDRip 1080p By Magnetto 83
Writing library : x264 core 146 r2538 121396c
Encoding settings : cabac=1 / ref=5 / deblock=1:-3:-3 / analyse=0x3:0x113 / me=umh / subme=11 / psy=1 / psy_rd=1.00:0.00 / mixed_ref=1 / me_range=32 / chroma_me=1 / trellis=2 / 8x8dct=1 / cqm=0 / deadzone=21,11 / fast_pskip=0 / chroma_qp_offset=-2 / threads=3 / lookahead_threads=1 / sliced_threads=0 / nr=0 / decimate=1 / interlaced=0 / bluray_compat=0 / constrained_intra=0 / bframes=8 / b_pyramid=2 / b_adapt=2 / b_bias=0 / direct=3 / weightb=1 / open_gop=0 / weightp=2 / keyint=250 / keyint_min=23 / scenecut=40 / intra_refresh=0 / rc=2pass / mbtree=0 / bitrate=5038 / ratetol=1.0 / qcomp=0.60 / qpmin=0 / qpmax=69 / qpstep=4 / cplxblur=20.0 / qblur=0.5 / ip_ratio=1.40 / pb_ratio=1.30 / aq=2:1.00
Language : English
Default : Yes
Forced : No

Audio
ID : 2
Format : AC-3
Format/Info : Audio Coding 3
Mode extension : CM (complete main)
Format settings, Endianness : Big
Codec ID : A_AC3
Duration : 1h 53mn
Bit rate mode : Constant
Bit rate : 448 Kbps
Channel(s) : 6 channels
Channel positions : Front: L C R, Side: L R, LFE
Sampling rate : 48.0 KHz
Compression mode : Lossy
Stream size : 365 MiB (8%)
Title : DD 5.1 @ 448 kbps - Дубляж | Blu-ray CEE |
Language : Russian
Default : Yes
Forced : No

Text #1
ID : 3
Format : UTF-8
Codec ID : S_TEXT/UTF8
Codec ID/Info : UTF-8 Plain Text
Title : Форс.
Language : Russian
Default : Yes
Forced : No

Text #2
ID : 4
Format : UTF-8
Codec ID : S_TEXT/UTF8
Codec ID/Info : UTF-8 Plain Text
Title : Полные
Language : Russian
Default : No
Forced : No

Text #3
ID : 5
Format : UTF-8
Codec ID : S_TEXT/UTF8
Codec ID/Info : UTF-8 Plain Text
Title : Full
Language : English
Default : No
Forced : No

Text #4
ID : 6
Format : UTF-8
Codec ID : S_TEXT/UTF8
Codec ID/Info : UTF-8 Plain Text
Title : SDH
Language : English
Default : No
Forced : No

Text #5
ID : 7
Format : UTF-8
Codec ID : S_TEXT/UTF8
Codec ID/Info : UTF-8 Plain Text
Title : SDH-Colored
Language : English
Default : No
Forced : No

Menu
00:00:00.000 : en:00:00:00.000
00:03:06.144 : en:00:03:06.144
00:06:42.193 : en:00:06:42.193
00:11:44.746 : en:00:11:44.746
00:18:26.188 : en:00:18:26.188
00:24:53.659 : en:00:24:53.659
00:33:14.159 : en:00:33:14.159
00:37:47.515 : en:00:37:47.515
00:43:16.511 : en:00:43:16.511
00:46:24.865 : en:00:46:24.865
00:51:23.580 : en:00:51:23.580
00:55:52.015 : en:00:55:52.015
01:00:03.183 : en:01:00:03.183
01:05:39.227 : en:01:05:39.227
01:10:40.153 : en:01:10:40.153
01:14:17.578 : en:01:14:17.578
01:18:05.055 : en:01:18:05.055
01:21:12.284 : en:01:21:12.284
01:24:39.366 : en:01:24:39.366
01:28:37.854 : en:01:28:37.854
01:32:28.376 : en:01:32:28.376
01:37:04.652 : en:01:37:04.652
01:40:30.024 : en:01:40:30.024
01:46:49.903 : en:01:46:49.903







Скачать Убийство.в.Восточном.экспрессе.Murder.on.the.Orient.Express.(Кеннет.Брана).[2017.Драма.криминал.детектив.BDRip][1080p].[Dub.Лицензия].[R.G.GoldenShara].torrent без регистрации
Золото ЗОЛОТАЯ РАЗДАЧА! СКАЧАННОЕ НЕ ЗАСЧИТЫВАЕТСЯ! Золото
Дата: Зарегистрирован   [ Тип: внутренний ] Как тут cкачать?
MAGNET ссылка
MAGNET ссылка


Скачать .torrent

11 KB

Статус: проверено
Скачан: торрент - 127 раз, раздача полностью - 64 раз
Размер: 4,37 GB
Оценка:  5 (Голосов: 3)
Поблагодарили: 8
Поделиться ссылкой на эту раздачу с друзьями:
В контактеFacebookОдноклассникиTwitterLivejournalМой МирLiveinternet
 

 

Magnetto83

[] 

ab Обновлено! Звук заменён на лицензию Blu-ray CEE! ad
 
Показать сообщения:    


Вы не можете начинать темы
Вы не можете отвечать на сообщения
Вы не можете редактировать свои сообщения
Вы не можете удалять свои сообщения
Вы не можете голосовать в опросах
Вы не можете прикреплять файлы к сообщениям
Вы можете скачивать файлы