Loading...
Error

Скачать Чи / The Chi (Сезон 01) (Дэйв Родригез, Таня Хэмилтон, Рик Фамуйива) [2018, Драма, WEB-DLRip] [MVO] (Jaskier) торрент без регистрации

Статистика раздачи
Размер:  6 GB   |    Скачан:  120 раз
Сидов:  1  [  0 KB/s  ]  
 
 
 
Автор Сообщение

leon030982

[] 

Чи / The Chi


Год выпуска: 2018
Страна: США
Жанр: Драма
Продолжительность: ~ 00:44:00
Перевод: Профессиональный (многоголосый закадровый) | Jaskier

Режиссёр: Дэйв Родригез, Таня Хэмилтон, Рик Фамуйива

В ролях: Алена Леуан, Тосин Морохунфола, Дэвид Алан Андерсон, Хосе Антонио Гарсия, Армандо Риско, Джейсон Митчелл, Оливия Бёрд

Описание: События драмы происходят в Чикаго. Герои сериала «Чи» — жители бедных южных районов города, со сложной криминогенной обстановкой. Афроамериканцы, живущие здесь, вынуждены каждый день рисковать жизнью и искать возможность заработать денег. Подростки, живущие в Чикаго, быстро взрослеют. Таков и Алекс Хибберт: мальчику пришлось рано распрощаться с детскими мечтами и приложить серьезные усилия, чтобы чего-то добиться в жизни...



Качество: WEB-DLRip
Формат: AVI
Видео: XviD, ~ 1400 kbps, 720x400, 23.976 fps
Аудио 1: MP3, 48,0 КГц, 2 ch, 128 kbps - RUS
Аудио 2: MP3, 48,0 КГц, 2 ch, 128 kbps - ENG
Субтитры: отсутствуют
Общее
Формат : AVI
Формат/Информация : Audio Video Interleave
Размер файла : 687 Мбайт
Продолжительность : 57 м.
Общий поток : 1670 Кбит/сек
Программа кодирования : VirtualDubMod 1.5.10.3 | www.virtualdub-fr.org || (build 2550/release)
Библиотека кодирования : VirtualDubMod build 2550/release

Видео
Идентификатор : 0
Формат : MPEG-4 Visual
Профиль формата : Advanced Simple@L5
Параметр BVOP формата : 2
Параметр QPel формата : Нет
Параметр GMC формата : Без точки перехода
Параметр матрицы формата : Выборочная
Идентификатор кодека : XVID
Идентификатор кодека/Подсказка : XviD
Продолжительность : 57 м.
Битрейт : 1400 Кбит/сек
Ширина : 720 пикселей
Высота : 400 пикселей
Соотношение сторон : 16:9
Частота кадров : 23,976 (23976/1000) кадра/сек
Цветовое пространство : YUV
Субдискретизация насыщенности : 4:2:0
Битовая глубина : 8 бит
Тип развёртки : Прогрессивная
Метод сжатия : С потерями
Бит/(Пиксели*Кадры) : 0.203
Размер потока : 576 Мбайт (84%)
Библиотека кодирования : XviD 73

Аудио #1
Идентификатор : 1
Формат : MPEG Audio
Версия формата : Version 1
Профиль формата : Layer 3
Режим : Joint stereo
Расширение режима : MS Stereo
Идентификатор кодека : 55
Идентификатор кодека/Подсказка : MP3
Продолжительность : 57 м.
Вид битрейта : Постоянный
Битрейт : 128 Кбит/сек
Каналы : 2 канала
Частота : 48,0 КГц
Метод сжатия : С потерями
Размер потока : 52,7 Мбайт (8%)
Выравнивание : Соединение по промежуткам
Продолжительность промежутка : 42 мс. (1,00 видеокадр)
Время предзагрузки промежутка : 504 мс.

Аудио #2
Идентификатор : 2
Формат : MPEG Audio
Версия формата : Version 1
Профиль формата : Layer 3
Режим : Joint stereo
Расширение режима : MS Stereo
Идентификатор кодека : 55
Идентификатор кодека/Подсказка : MP3
Продолжительность : 57 м.
Вид битрейта : Постоянный
Битрейт : 128 Кбит/сек
Каналы : 2 канала
Частота : 48,0 КГц
Метод сжатия : С потерями
Размер потока : 52,7 Мбайт (8%)
Выравнивание : Соединение по промежуткам
Продолжительность промежутка : 42 мс. (1,00 видеокадр)
Время предзагрузки промежутка : 504 мс.
Когда раздача ведётся путём добавления новых серий, при каждом добавлении создётся новый торрент. Чтобы начать докачку новой серии, пользователям необходимо сделать следующее:
(1) остановить скачивание,
(2) удалить старый торрент у себя из клиента (старые серии удалять не надо),
(3) скачать новый торрент и запустить его у себя в клиенте вместо старого, при этом указать клиенту путь в старую папку, куда и должно происходить скачивание новых серий.
Ваш клиент при этом должен произвести хеширование (проверку) старой папки (если не производит сам - помогите ему сделать это), и будет докачивать только те серии, которых у вас ещё нет. Старые серии при этом не удаляются, а продолжают раздаваться!
Eсли вы уже удалили старые серии, то предотвратить повторную закачку старых серий можно, отжав галочку в соответсвующих местах при запуске нового торрента. По возможности, желательно не удалять старые серии как можно дольше, чтобы релизёр не столько продолжал раздавать старые серии, а смог сконцентрироваться на новых.



Скачать Чи.The.Chi.(Сезон.01).(Дэйв.Родригез.Таня.Хэмилтон.Рик.Фамуйива).[2018.Драма.WEB-DLRip].[MVO].(Jaskier).torrent без регистрации
Золото ЗОЛОТАЯ РАЗДАЧА! СКАЧАННОЕ НЕ ЗАСЧИТЫВАЕТСЯ! Золото
Дата: Зарегистрирован   [ Тип: внутренний ] Как тут cкачать?
MAGNET ссылка
MAGNET ссылка


Скачать .torrent

32 KB

Статус: проверено DHT
Скачан: торрент - 120 раз, раздача полностью - 2 раз
Размер: 6 GB
Оценка:  - (Голосов: 0)
Поблагодарили: 0
Поделиться ссылкой на эту раздачу с друзьями:
В контактеFacebookОдноклассникиTwitterLivejournalМой МирLiveinternet
 

 
Показать сообщения:    


Вы не можете начинать темы
Вы не можете отвечать на сообщения
Вы не можете редактировать свои сообщения
Вы не можете удалять свои сообщения
Вы не можете голосовать в опросах
Вы не можете прикреплять файлы к сообщениям
Вы можете скачивать файлы