Loading...
Error

Скачать Селфи из ада / Selfie from Hell (Эрдал Сейлан) [2018, ужасы, детектив, WEBRip] [720p] [DVO (HiWay Grope)] торрент без регистрации

Статистика раздачи
Размер:  1,52 GB   |    Скачан:  72 раза
Сидов:  1  [  0 KB/s  ]  
 
 
 
Автор Сообщение

МихаНЕзатор

[] 

Информация о фильме
Название: Селфи из ада
Оригинальное название: Selfie from Hell
Год выхода: 2018
Жанр: ужасы, детектив
Режиссер: Эрдал Сейлан

В ролях: Элисон Уолкер, Тони Жиру, Мила Адамс, Йен Батчер, Тайлер Смит, Шон Морс, Мэттью Грэхэм, Стефани Гуден и другие

О фильме: Видеоблогер Джулия приезжает в гости к своей кузине Ханне и внезапно заболевает. Её странная болезнь вызывает у Ханны подозрения. После того как в ее доме происходят необъяснимые вещи, Ханна начинает искать ответы в интернете. Она находит записи в блоге Джулии и оказывается глубоко погруженной в сеть — слишком глубоко — в том месте, где ужас не знает границ.



Страна: Великобритания, Broadlane Films
Продолжительность: 01:16:16
Перевод: Любительский (двухголосый закадровый) | HiWay Grope

Файл
Кодек: MPEG-4 AVC/x.264
Качество: WEBRip 720p
Видео: 1280x540, 23.976 fps, ~2418 kbps, 0.146 bit/pixel
Звук:
Аудио rus: AC3, 48 kHz, 6 ch, 384 Kbps
Субтитры: отсутствуют

General
Unique ID : 57131134573151301893890599298342259001 (0x2AFB0E689224C04DA8011F7647DB0939)
Complete name : E:Selfie.from.Hell.2018.720p.WEBRip.HiWayGropeSelfie.from.Hell.2018.720p.WEBRip.HiWayGrope.mkv
Format : Matroska
Format version : Version 4 / Version 2
File size : 1.52 GiB
Duration : 1h 16mn
Overall bit rate : 2 859 Kbps
Encoded date : UTC 2018-03-26 16:30:20
Writing application : mkvmerge v21.0.0 ('Tardigrades Will Inherit The Earth') 64-bit
Writing library : libebml v1.3.5 + libmatroska v1.4.8

Video
ID : 1
Format : AVC
Format/Info : Advanced Video Codec
Format profile : Main@L4.1
Format settings, CABAC : Yes
Format settings, ReFrames : 4 frames
Codec ID : V_MPEG4/ISO/AVC
Duration : 1h 16mn
Bit rate : 2 418 Kbps
Width : 1 280 pixels
Height : 540 pixels
Display aspect ratio : 2.40:1
Frame rate mode : Constant
Frame rate : 23.976 (24000/1001) fps
Standard : NTSC
Color space : YUV
Chroma subsampling : 4:2:0
Bit depth : 8 bits
Scan type : Progressive
Bits/(Pixel*Frame) : 0.146
Stream size : 1.29 GiB (85%)
Language : English
Default : Yes
Forced : No
Color range : Limited
Color primaries : BT.601 NTSC
Transfer characteristics : BT.601
Matrix coefficients : BT.601

Audio
ID : 2
Format : AC-3
Format/Info : Audio Coding 3
Mode extension : CM (complete main)
Format settings, Endianness : Big
Codec ID : A_AC3
Duration : 1h 16mn
Bit rate mode : Constant
Bit rate : 384 Kbps
Channel(s) : 6 channels
Channel positions : Front: L C R, Side: L R, LFE
Sampling rate : 48.0 KHz
Frame rate : 31.250 fps (1536 spf)
Compression mode : Lossy
Stream size : 210 MiB (13%)
Title : rus
Language : Russian
Default : Yes
Forced : No
Релиз от: HiWay Grope



Скачать Селфи.из.ада.Selfie.from.Hell.(Эрдал.Сейлан).[2018.ужасы.детектив.WEBRip].[720p].[DVO.(HiWay.Grope)].torrent без регистрации
Золото ЗОЛОТАЯ РАЗДАЧА! СКАЧАННОЕ НЕ ЗАСЧИТЫВАЕТСЯ! Золото
Дата: Зарегистрирован   [ Тип: внутренний ] Как тут cкачать?
MAGNET ссылка
MAGNET ссылка


Скачать .torrent

16 KB

Статус: проверено DHT
Скачан: торрент - 72 раз, раздача полностью - 87 раз
Размер: 1,52 GB
Оценка:  - (Голосов: 0)
Поблагодарили: 3
Поделиться ссылкой на эту раздачу с друзьями:
В контактеFacebookОдноклассникиTwitterLivejournalМой МирLiveinternet
 

 
Показать сообщения:    


Вы не можете начинать темы
Вы не можете отвечать на сообщения
Вы не можете редактировать свои сообщения
Вы не можете удалять свои сообщения
Вы не можете голосовать в опросах
Вы не можете прикреплять файлы к сообщениям
Вы можете скачивать файлы