Loading...
Error

Скачать Tomb Raider: Лара Крофт / Tomb Raider (Роар Утхауг) [2018, боевик, приключения, TS *PROPER v.2*] [720p] [DUB] торрент без регистрации

Статистика раздачи
Размер:  2,92 GB   |    Скачан:  411 раз
Сидов:  3  [  55 KB/s  ]  
 
 
 
Автор Сообщение

leon030982

[] 

Tomb Raider: Лара Крофт / Tomb Raider


Год выпуска: 2018
Жанр: боевик, приключения
Выпущено: Великобритания, США
Продолжительность: 01:53:15
Перевод: Дублированный

Режиссер: Роар Утхауг

В ролях: Алисия Викандер, Доминик Уэст, Уолтон Гоггинс, Дэниэл Ву, Кристин Скотт Томас, Дерек Джекоби, Александр Виллауме, Тамер Барджаг, Эдриан Коллинз, Кинэн Эррисон

О фильме: Лара Крофт - весьма самостоятельная дочь эксцентричного искателя приключений, который пропал, едва она стала подростком. Теперь ей двадцать один, она бесцельно проживает свою жизнь, курьером рассекая на байке по забитым улицам восточного Лондона, а ее заработка едва хватает на оплату квартиры и занятий в колледже. Решительно настроенная пробиться сама, она отказывается брать на себя руководство глобальной империей отца, столь же категорично отвергая мысль о том, что он действительно пропал. Слыша советы о том, что ей нужно смириться с этим фактом и жить дальше после семи лет бесплодных поисков, Лара уже и сама не понимает, что же заставляет ее распутывать обстоятельства его таинственной смерти.



Качество: TS *PROPER v.2* 720p
Видео: MPEG4 AVC, 3307 Кбит/с, 1280x552
Аудио: AC3, 2 ch, 384 Кбит/с
General
Unique ID : 204484085530345014878946668945313820180 (0x99D633CD09407E0A80DEE423AC0AEE14)
Complete name : F:\Tomb.Raider.2018.D.TS.PROPER.72Op_KOSHARA.mkv
Format : Matroska
Format version : Version 2
File size : 2.92 GiB
Duration : 1 h 53 min
Overall bit rate mode : Variable
Overall bit rate : 3 693 kb/s
Encoded date : UTC 2018-03-27 15:45:23
Writing application : mkvmerge v8.3.0 ('Over the Horizon') 64bit
Writing library : libebml v1.3.1 + libmatroska v1.4.2

Video
ID : 1
Format : AVC
Format/Info : Advanced Video Codec
Format profile : High@L4.1
Format settings : CABAC / 4 Ref Frames
Format settings, CABAC : Yes
Format settings, RefFrames : 4 frames
Codec ID : V_MPEG4/ISO/AVC
Duration : 1 h 53 min
Bit rate mode : Variable
Bit rate : 3 236 kb/s
Maximum bit rate : 3 500 kb/s
Width : 1 280 pixels
Height : 552 pixels
Display aspect ratio : 2.35:1
Frame rate mode : Constant
Frame rate : 23.976 (24000/1001) FPS
Standard : Component
Color space : YUV
Chroma subsampling : 4:2:0
Bit depth : 8 bits
Scan type : Progressive
Bits/(Pixel*Frame) : 0.191
Stream size : 2.56 GiB (88%)
Default : Yes
Forced : No
Color range : Limited
Color primaries : BT.709
Transfer characteristics : BT.709
Matrix coefficients : BT.709

Audio
ID : 2
Format : AC-3
Format/Info : Audio Coding 3
Format settings, Endianness : Big
Codec ID : A_AC3
Duration : 1 h 53 min
Bit rate mode : Constant
Bit rate : 384 kb/s
Channel(s) : 2 channels
Channel positions : Front: L R
Sampling rate : 48.0 kHz
Frame rate : 31.250 FPS (1536 SPF)
Bit depth : 16 bits
Compression mode : Lossy
Stream size : 311 MiB (10%)
Service kind : Complete Main
Default : Yes
Forced : No



Скачать Tomb.Raider.Лара.Крофт.Tomb.Raider.(Роар.Утхауг).[2018.боевик.приключения.TS.*PROPER.v.2*].[720p].[DUB].torrent без регистрации
Золото ЗОЛОТАЯ РАЗДАЧА! СКАЧАННОЕ НЕ ЗАСЧИТЫВАЕТСЯ! Золото
Дата: Зарегистрирован   [ Тип: внутренний ] Как тут cкачать?
MAGNET ссылка
MAGNET ссылка


Скачать .torrent

16 KB

Статус: Τ временная раздача
Скачан: торрент - 411 раз, раздача полностью - 152 раз
Размер: 2,92 GB
Оценка:  - (Голосов: 0)
Поблагодарили: 10
Поделиться ссылкой на эту раздачу с друзьями:
В контактеFacebookОдноклассникиTwitterLivejournalМой МирLiveinternet
 

 

URFIH

[] 

az
 

KJLOYH

[] 

мда ... не смотря на ПРОПЕРтый 720 - качество полное Г ...
З.Ы. хотя и сам фильм аналогично - актриса на Лару Крофт не тянет совсем
З.З.Ы. идеальной кандидатурой на роль была бы Рона Митра ... ну или Кейт Бекинсейл ... но явно не эта ...
 

leon030982

[] 

KJLOYH писал(а):

Рона Митра ... ну или Кейт Бекинсейл
старые, куда им ларку то играть
 

KJLOYH

[] 

leon030982 писал(а):

KJLOYH писал(а):

Рона Митра ... ну или Кейт Бекинсейл
старые, куда им ларку то играть
так ведь и Лариске. по сути 35-40 (учитывая ее пенсионера-отца из фильма 2001 года ) ab
 

KJLOYH

[] 

З.Ы. кстаи 10-летняя разница в возреесте между упомяянутыми мной актрисами и героиней фильма визуально и не заметна ;)
 

leon030982

[] 

KJLOYH писал(а):

leon030982 писал(а):

KJLOYH писал(а):

Рона Митра ... ну или Кейт Бекинсейл
старые, куда им ларку то играть
так ведь и Лариске. по сути 35-40 (учитывая ее пенсионера-отца из фильма 2001 года ) ab
Не, ну если Кейт бы еще зашла то Рона вообще не вариант av
 

KJLOYH

[] 

leon030982 писал(а):

KJLOYH писал(а):

leon030982 писал(а):

KJLOYH писал(а):

Рона Митра ... ну или Кейт Бекинсейл
старые, куда им ларку то играть
так ведь и Лариске. по сути 35-40 (учитывая ее пенсионера-отца из фильма 2001 года ) ab
Не, ну если Кейт бы еще зашла то Рона вообще не вариант av
да они внешне очень похожи - именно по этому Рону и взяли в третью часть Другого мира ...
З.Ы. вот последнии дни пересматриваю сериал "Ответный удар" - и Рона точная копия Лара Крофт из игры (даже Анжелка отдыхает в этом плане), ИМХО
 

KJLOYH

[] 


 

leon030982

[] 

KJLOYH писал(а):


Картинки под спойлер прятать нужно ab Страшненькая эта Рона на роль ларки av
 

KJLOYH

[] 

leon030982 писал(а):

KJLOYH писал(а):


Картинки под спойлер прятать нужно ab Страшненькая эта Рона на роль ларки av
Бро, а ты в игру играл 20 лет назад? Я да :)
И сужу по игре ...
З.Ы. выссказал свое личное мнение ...в кино илольшой компанией и шинство новой актрисой разочаровано
З.З.Ы. может и рону нужно бфызять на роль (продюссерам с режисером видней наверное) - но уж точно не ту дамочку что сыграла в новом фильме. ИМХо ... рапзочаровала своей игрой ... и уж 100% даже в наминации на оскар ее не рассмотрят
 

KJLOYH

[] 

а по поводу страшненькой ...
так лара вроде не глянцевая модель. а сисе-попачная смуглая брюнетка экшен устраивущая =)))))
 

leon030982

[] 

KJLOYH писал(а):

Алисия Викандер
Кстати оскар у актрисы сыгравшей ларку есть уже, и думаю не один еще будет но точно не за этот фильм
 
Показать сообщения:    


Вы не можете начинать темы
Вы не можете отвечать на сообщения
Вы не можете редактировать свои сообщения
Вы не можете удалять свои сообщения
Вы не можете голосовать в опросах
Вы не можете прикреплять файлы к сообщениям
Вы можете скачивать файлы