Loading...
Error

Скачать Форма воды / The Shape of Water (Гильермо Дель Торо) [2017, Фэнтези, драма, приключения, BDRip][1080p] [DUB RUS UKR iTunes] [R.G. GoldenShara] торрент без регистрации

Статистика раздачи
Размер:  4,48 GB   |    Скачан:  165 раз
Сидов:  3  [  95 KB/s  ]   Личеров:  1  [  0 KB/s  ]  
 
 
 
Автор Сообщение

Magnetto83

[] 


Форма воды / The Shape of Water


Год выпуска: 2017
Выпущено: Канада, США | Fox Searchlight Pictures
Жанр: Фэнтези, драма, приключения
Продолжительность: 02:03:19
Перевод: Перевод 1 и 2: Профессиональный (полное дублирование) | iTunes |
Субтитры: Русские (форс. + полные), украинские (форс. + полные), английские (Forced + Full + SDH + SDH-Colored)
Навигация по главам: Сохранены оригинальные главы как на Blu-ray

Слоган: «A Fairy Tale for Troubled Times»

Режиссер: Гильермо Дель Торо

В ролях: Салли Хокинс, Майкл Шеннон, Ричард Дженкинс, Октавия Спенсер, Майкл Стулбарг, Даг Джонс, Дэвид Хьюлетт, Ник Сирси, Стюарт Арнотт, Найджел Беннетт

Описание: «Форма воды» — это фантастическая, но искренняя история про невозможную любовь. Действие разворачивается в 1963 году. Немая и одинокая уборщица Элайза в стенах секретной лаборатории влюбляется в человека-амфибию. Он и она не могут говорить, но чувствовать они способны даже больше других людей. Вышестоящими чинами принимается решение умертвить диковинное существо и провести финальные опыты. Элайза понимает, что готова рискнуть всем ради любви.



Возраст: 18+ (зрителям, достигшим 18 лет. запрещено для детей)
Рейтинг MPAA: R (лицам до 17 лет обязательно присутствие взрослого)

Качество: BDRip 1080p
Формат: MKV
Видео кодек: H.264
Аудио кодек: AC3
Видео: 1920x1036 (16:9), 4620 kbps, 23.976 fps
Аудио 1: Русский Dolby Digital 5.1 (384 Кбит/с) (Вшит в рип)
Аудио 2: Украинский Dolby Digital 2.0 (192 Кбит/с) (Отдельным файлом в папке)


x264 [info]: frame I:1919 Avg QP:17.08 size:153283
x264 [info]: frame P:46645 Avg QP:20.32 size: 45869
x264 [info]: frame B:122700 Avg QP:22.70 size: 15114
x264 [info]: consecutive B-frames: 4.9% 9.1% 8.3% 36.8% 12.2% 19.0% 4.2% 4.8% 0.5%
x264 [total]: encoded 171264 frames, 1.38 fps, 4802.57 kb/s



General
Unique ID : 183952068368999371619096754579803337010 (0x8A63E132BBC953A2B3DAD6A43F3DF132)
Complete name : G:\Видео\Мои Рипы 1080p\Кино-Хиты 2017\Форма Воды 2017 Dub Rus Ukr iTunes BDRip 1080p\Форма Воды 2017 Dub iTunes BDRip 1080p.mkv
Format : Matroska
Format version : Version 2
File size : 4.31 GiB
Duration : 2h 3mn
Overall bit rate : 5 004 Kbps
Movie name : Форма Воды 2017 Dub Rus BDRip 1080p By R.G. GoldenShara
Encoded date : UTC 2018-03-15 08:28:56
Writing application : mkvmerge v5.2.0 ('I can't explain') built on Dec 18 2011 18:12:03
Writing library : libebml v1.2.3 + libmatroska v1.3.0
Attachements : Cover

Video
ID : 1
Format : AVC
Format/Info : Advanced Video Codec
Format profile : High@L4.1
Format settings, CABAC : Yes
Format settings, ReFrames : 4 frames
Codec ID : V_MPEG4/ISO/AVC
Duration : 2h 3mn
Bit rate : 4 620 Kbps
Width : 1 920 pixels
Height : 1 036 pixels
Display aspect ratio : 1.85:1
Frame rate mode : Constant
Frame rate : 23.976 fps
Color space : YUV
Chroma subsampling : 4:2:0
Bit depth : 8 bits
Scan type : Progressive
Bits/(Pixel*Frame) : 0.097
Stream size : 3.89 GiB (90%)
Title : Форма Воды 2017 BDRip 1080p By Magnetto 83
Writing library : x264 core 146 r2538 121396c
Encoding settings : cabac=1 / ref=4 / deblock=1:-1:-1 / analyse=0x3:0x113 / me=umh / subme=10 / psy=1 / psy_rd=1.00:0.00 / mixed_ref=1 / me_range=32 / chroma_me=1 / trellis=2 / 8x8dct=1 / cqm=0 / deadzone=21,11 / fast_pskip=0 / chroma_qp_offset=-2 / threads=3 / lookahead_threads=1 / sliced_threads=0 / nr=0 / decimate=1 / interlaced=0 / bluray_compat=0 / constrained_intra=0 / bframes=8 / b_pyramid=2 / b_adapt=2 / b_bias=0 / direct=3 / weightb=1 / open_gop=0 / weightp=2 / keyint=250 / keyint_min=23 / scenecut=40 / intra_refresh=0 / rc=2pass / mbtree=0 / bitrate=4620 / ratetol=1.0 / qcomp=0.60 / qpmin=0 / qpmax=69 / qpstep=4 / cplxblur=20.0 / qblur=0.5 / ip_ratio=1.40 / pb_ratio=1.30 / aq=2:1.00
Language : English
Default : Yes
Forced : No

Audio
ID : 2
Format : AC-3
Format/Info : Audio Coding 3
Mode extension : CM (complete main)
Format settings, Endianness : Big
Codec ID : A_AC3
Duration : 2h 3mn
Bit rate mode : Constant
Bit rate : 384 Kbps
Channel(s) : 6 channels
Channel positions : Front: L C R, Side: L R, LFE
Sampling rate : 48.0 KHz
Compression mode : Lossy
Stream size : 339 MiB (8%)
Title : DD 5.1 @384 Kbps - Dub | iTunes |
Language : Russian
Default : Yes
Forced : No

Text #1
ID : 3
Format : UTF-8
Codec ID : S_TEXT/UTF8
Codec ID/Info : UTF-8 Plain Text
Title : Форс.
Language : Russian
Default : Yes
Forced : No

Text #2
ID : 4
Format : UTF-8
Codec ID : S_TEXT/UTF8
Codec ID/Info : UTF-8 Plain Text
Title : Полные
Language : Russian
Default : No
Forced : No

Text #3
ID : 5
Format : UTF-8
Codec ID : S_TEXT/UTF8
Codec ID/Info : UTF-8 Plain Text
Title : Полные v.2
Language : Russian
Default : No
Forced : No

Text #4
ID : 6
Format : UTF-8
Codec ID : S_TEXT/UTF8
Codec ID/Info : UTF-8 Plain Text
Title : Форс.
Language : Ukrainian
Default : No
Forced : No

Text #5
ID : 7
Format : UTF-8
Codec ID : S_TEXT/UTF8
Codec ID/Info : UTF-8 Plain Text
Title : Повні
Language : Ukrainian
Default : No
Forced : No

Text #6
ID : 8
Format : UTF-8
Codec ID : S_TEXT/UTF8
Codec ID/Info : UTF-8 Plain Text
Title : Forced
Language : English
Default : No
Forced : No

Text #7
ID : 9
Format : UTF-8
Codec ID : S_TEXT/UTF8
Codec ID/Info : UTF-8 Plain Text
Title : Full
Language : English
Default : No
Forced : No

Text #8
ID : 10
Format : UTF-8
Codec ID : S_TEXT/UTF8
Codec ID/Info : UTF-8 Plain Text
Title : SDH
Language : English
Default : No
Forced : No

Menu
00:00:00.000 : en:00:00:00.000
00:06:24.467 : en:00:06:24.467
00:12:54.774 : en:00:12:54.774
00:18:32.987 : en:00:18:32.987
00:23:45.591 : en:00:23:45.591
00:29:39.653 : en:00:29:39.653
00:35:29.836 : en:00:35:29.836
00:39:30.535 : en:00:39:30.535
00:42:42.435 : en:00:42:42.435
00:48:34.036 : en:00:48:34.036
00:52:26.935 : en:00:52:26.935
00:57:30.197 : en:00:57:30.197
01:01:52.542 : en:01:01:52.542
01:07:35.551 : en:01:07:35.551
01:12:13.496 : en:01:12:13.496
01:17:50.791 : en:01:17:50.791
01:21:17.122 : en:01:21:17.122
01:26:05.911 : en:01:26:05.911
01:32:48.480 : en:01:32:48.480
01:37:18.750 : en:01:37:18.750
01:43:24.115 : en:01:43:24.115
01:46:06.610 : en:01:46:06.610
01:50:31.667 : en:01:50:31.667
01:58:34.858 : en:01:58:34.858







Скачать Форма.воды.The.Shape.of.Water.(Гильермо.Дель.Торо).[2017.Фэнтези.драма.приключения.BDRip][1080p].[DUB.RUS.UKR.iTunes].[R.G.GoldenShara].torrent без регистрации
Золото ЗОЛОТАЯ РАЗДАЧА! СКАЧАННОЕ НЕ ЗАСЧИТЫВАЕТСЯ! Золото
Дата: Зарегистрирован   [ Тип: внутренний ] Как тут cкачать?
MAGNET ссылка
MAGNET ссылка


Скачать .torrent

12 KB

Статус: Τ временная раздача
Скачан: торрент - 165 раз, раздача полностью - 241 раз
Размер: 4,48 GB
Оценка:  4,8 (Голосов: 5)
Поблагодарили: 12
Поделиться ссылкой на эту раздачу с друзьями:
В контактеFacebookОдноклассникиTwitterLivejournalМой МирLiveinternet
 

 

Dark Viking

[] 

Подскажите, стол заказов у вас уже не работает?
 

sobmaster

[] 

В разделе "Общение" есть тема "Будущие релизы R.G. GoldenShara + Запросы пользователей". Все заказы можно делать там.
 

Dark Viking

[] 

sobmaster
Спасибо, извините что не в тему...
 
Показать сообщения:    


Вы не можете начинать темы
Вы не можете отвечать на сообщения
Вы не можете редактировать свои сообщения
Вы не можете удалять свои сообщения
Вы не можете голосовать в опросах
Вы не можете прикреплять файлы к сообщениям
Вы можете скачивать файлы