Loading...
Error

Скачать Повелитель зверей / The Beastmaster (Дон Коскарелли) [1982, фэнтези, приключения, боевик, BDRip] [1080p] [AVO]x4+[Оригинал Eng] торрент без регистрации

Статистика раздачи
Размер:  15,88 GB   |    Скачан:  22 раза
Сидов:  2  [  0 KB/s  ]   Личеров:  1  [  0 KB/s  ]  
 
 
 
Автор Сообщение

Marsianka

[] 

Информация о фильме
Название: Повелитель зверей
Оригинальное название: The Beastmaster
Год выхода: 1982
Жанр: фэнтези, приключения, боевик
Режиссер: Дон Коскарелли
В ролях: Марк Сингер, Таня Робертс, Рип Торн, Джон Эймос, Род Лумис, Джош Милрод, Бен Хаммер, Ральф Стрейт, Билли Джэйн, Джанет ДеМэй, Крис Келлогг, Джанет Джонс, Тони Эппер, Мик Тибодо, Пол Рейнольдс, Монти Л. Саймонс, Брюс Пол Барбо, Даймонд Фарнсворт, Линда Смит, Ларри Рэндлс, Джереми Вилан, Билли Хэнк Хукер, Джордж Скотт, Томми Дж. Хафф, Ричард Хэмпфри, Хью Армстронг, Майк Киртон, Эдди Донно, Гари МакЛарти, Фесс Рейнольдс, Чарльз Хикс

О фильме: Фантастические приключения в стиле тарзаниады и фильмов про Конана-варвара. В некотором древнем царстве, в тридесятом государстве жил-был добрый король. Народ любил короля. И был страшный-престрашный колдун, хобби которого было проиносить человеческие жертвы. И народ боялся колдуна... И вот как-то прознал король про неприглядные дела этого самого колдуна и приказал запереть его в кутузку. Но у колдуна была банда, при помощи которой (и, конечно же, колдовства) он сбежал. Наслав заклятие на короля и его беременную супругу, он перенёс будущего принца из чрева матери-в чрево коровы. Родившийся таким необычным образом принц должен был достаться в жертву обожаемому колдуном дьяволу. Уродливое создание - творение колдуна по заказу последнего успевает заклеймить жертву, но не успевает его убить, так как появляется ещё один персонаж-вольный дровосек, который убивает чудище. Догадывался или не догадывался дровосек, чьим отпрыском является спасённый младенец - не известно, но вырастил он его как своего сына, настоящим мужчиной. Прошло много лет, но юноша ещё не достиг совершеннолетия, а колдун вместе со своими хулиганами (по причине личной зловредности)уничтожает селение и приёмного отца принца. Юноша не знал о своём происхождении и, потеряв отца, друзей и всего родного и близкого, отправляется в странствие с желанием отомстить. В пути он находит друзей из числа зверей, с которыми может общаться и понимать друг друга, а также из числа людей, таких же гонимых, как и он сам. Вместе они переживают невероятные приключения, но заканчивается всё благополучно...



Выпущено: США
Студия: United Artists, MGM
Продолжительность: 01:58:27
Перевод: Авторский одноголосый

Общее
Уникальный идентификатор : 207948050847730652158421766029193067207 (0x9C71567A1749FC998BBF9EA58D993AC7)
Полное имя : D:VideoПовелитель зверей.1982.BDRip.1080p by msltel.mkv
Формат : Matroska
Версия формата : Version 4 / Version 2
Размер файла : 15,9 Гбайт
Продолжительность : 1 ч. 58 м.
Общий поток : 19,2 Мбит/сек
Название фильма : Rip by msltel
Дата кодирования : UTC 2018-03-26 13:56:42
Программа кодирования : mkvmerge v8.2.0 ('World of Adventure') 64bit
Библиотека кодирования : libebml v1.3.1 + libmatroska v1.4.2

Видео
Идентификатор : 1
Формат : AVC
Формат/Информация : Advanced Video Codec
Профиль формата : High@L4.1
Настройки формата : CABAC / 4 Ref Frames
Параметр CABAC формата : Да
Параметр RefFrames формата : 4 кадра
Идентификатор кодека : V_MPEG4/ISO/AVC
Продолжительность : 1 ч. 58 м.
Битрейт : 16,7 Мбит/сек
Ширина : 1908 пикселей
Высота : 1080 пикселей
Соотношение сторон : 16:9
Режим частоты кадров : Постоянный
Частота кадров : 23,976 (24000/1001) кадра/сек
Цветовое пространство : YUV
Субдискретизация насыщенности : 4:2:0
Битовая глубина : 8 бит
Тип развёртки : Прогрессивная
Бит/(Пиксели*Кадры) : 0.337
Размер потока : 13,8 Гбайт (87%)
Библиотека кодирования : x264 core 146 r2538 121396c
Настройки программы : cabac=1 / ref=4 / deblock=1:-3:-2 / analyse=0x3:0x113 / me=umh / subme=11 / psy=1 / psy_rd=1.00:0.15 / mixed_ref=1 / me_range=32 / chroma_me=1 / trellis=2 / 8x8dct=1 / cqm=0 / deadzone=21,11 / fast_pskip=0 / chroma_qp_offset=-3 / threads=6 / lookahead_threads=1 / sliced_threads=0 / nr=0 / decimate=1 / interlaced=0 / bluray_compat=0 / constrained_intra=0 / bframes=9 / b_pyramid=2 / b_adapt=2 / b_bias=0 / direct=1 / weightb=1 / open_gop=0 / weightp=2 / keyint=230 / keyint_min=23 / scenecut=40 / intra_refresh=0 / rc_lookahead=40 / rc=crf / mbtree=0 / crf=19.4 / qcomp=0.60 / qpmin=0 / qpmax=69 / qpstep=4 / vbv_maxrate=62500 / vbv_bufsize=78125 / crf_max=0.0 / nal_hrd=none / filler=0 / ip_ratio=1.40 / pb_ratio=1.30 / aq=1:1.00
Язык : English
Default : Да
Forced : Нет

Аудио #1
Идентификатор : 2
Формат : AC-3
Формат/Информация : Audio Coding 3
Идентификатор кодека : A_AC3
Продолжительность : 1 ч. 58 м.
Вид битрейта : Постоянный
Битрейт : 192 Кбит/сек
Каналы : 2 канала
Расположение каналов : Front: L R
Частота : 48,0 КГц
Частота кадров : 31,250 кадров/сек (1536 SPF)
Битовая глубина : 16 бит
Метод сжатия : С потерями
Размер потока : 163 Мбайт (1%)
Заголовок : Вартан Дохалов
Язык : Russian
ServiceKind/String : Complete Main
Default : Да
Forced : Нет

Аудио #2
Идентификатор : 3
Формат : AC-3
Формат/Информация : Audio Coding 3
Идентификатор кодека : A_AC3
Продолжительность : 1 ч. 58 м.
Вид битрейта : Постоянный
Битрейт : 448 Кбит/сек
Каналы : 6 каналов
Расположение каналов : Front: L C R, Side: L R, LFE
Частота : 48,0 КГц
Частота кадров : 31,250 кадров/сек (1536 SPF)
Битовая глубина : 16 бит
Метод сжатия : С потерями
Размер потока : 380 Мбайт (2%)
Заголовок : Константин Дьяконов
Язык : Russian
ServiceKind/String : Complete Main
Default : Нет
Forced : Нет

Аудио #3
Идентификатор : 4
Формат : AC-3
Формат/Информация : Audio Coding 3
Идентификатор кодека : A_AC3
Продолжительность : 1 ч. 58 м.
Вид битрейта : Постоянный
Битрейт : 192 Кбит/сек
Каналы : 2 канала
Расположение каналов : Front: L R
Частота : 48,0 КГц
Частота кадров : 31,250 кадров/сек (1536 SPF)
Битовая глубина : 16 бит
Метод сжатия : С потерями
Размер потока : 163 Мбайт (1%)
Заголовок : Александр Марченко
Язык : Russian
ServiceKind/String : Complete Main
Default : Нет
Forced : Нет

Аудио #4
Идентификатор : 5
Формат : AC-3
Формат/Информация : Audio Coding 3
Идентификатор кодека : A_AC3
Продолжительность : 1 ч. 58 м.
Вид битрейта : Постоянный
Битрейт : 192 Кбит/сек
Каналы : 2 канала
Расположение каналов : Front: L R
Частота : 48,0 КГц
Частота кадров : 31,250 кадров/сек (1536 SPF)
Битовая глубина : 16 бит
Метод сжатия : С потерями
Размер потока : 163 Мбайт (1%)
Заголовок : Юрий Сербин
Язык : Russian
ServiceKind/String : Complete Main
Default : Нет
Forced : Нет

Аудио #5
Идентификатор : 6
Формат : DTS
Формат/Информация : Digital Theater Systems
Идентификатор кодека : A_DTS
Продолжительность : 1 ч. 58 м.
Вид битрейта : Постоянный
Битрейт : 1509 Кбит/сек
Каналы : 6 каналов
Расположение каналов : Front: L C R, Side: L R, LFE
Частота : 48,0 КГц
Частота кадров : 93,750 кадра/сек (512 SPF)
Битовая глубина : 24 бит
Метод сжатия : С потерями
Размер потока : 1,25 Гбайт (8%)
Заголовок : original
Язык : English
Default : Нет
Forced : Нет

Меню
00:00:00.000 : en:Chapter 01
00:01:38.056 : en:Chapter 02
00:16:22.147 : en:Chapter 03
00:29:23.762 : en:Chapter 04
00:39:43.839 : en:Chapter 05
00:49:28.632 : en:Chapter 06
00:55:43.757 : en:Chapter 07
01:01:40.697 : en:Chapter 08
01:12:19.335 : en:Chapter 09
01:24:21.014 : en:Chapter 10
01:33:37.695 : en:Chapter 11
01:41:53.690 : en:Chapter 12
01:55:32.425 : en:Chapter 13

Файл
Качество: BDRip 1080p
Формат: MKV
Видео: MPEG-4 AVC, 16.7 Mбит/с, 1908x1080, 23.976 кадр/c
Аудио 1: русский, AC3, 192 kbps, 2 ch, 48 kHz [авторский, Вартан Дохалов]
Аудио 2: русский, AC3, 448 kbps, 6 ch, 48 kHz [авторский, Константин Дьяконов]
Аудио 3: русский, AC3, 192 kbps, 2 ch, 48 kHz [авторский, Александр Марченко]
Аудио 4: русский, AC3, 192 kbps, 2 ch, 48 kHz [авторский, Юрий Сербин]
Аудио 5: английский, DTS, 1509 kbps, 6 ch, 48 kHz [оригинал]
Главы/чаптеры



Скачать Повелитель.зверей.The.Beastmaster.(Дон.Коскарелли).[1982.фэнтези.приключения.боевик.BDRip].[1080p].[AVO]x4+[Оригинал.Eng].torrent без регистрации
Золото ЗОЛОТАЯ РАЗДАЧА! СКАЧАННОЕ НЕ ЗАСЧИТЫВАЕТСЯ! Золото
Дата: Зарегистрирован   [ Тип: внешний ] Как тут cкачать?
MAGNET ссылка
MAGNET ссылка


Скачать .torrent

41 KB

Статус: проверено DHT
Скачан: торрент - 22 раз, раздача полностью - 0 раз
Размер: 15,88 GB
Оценка:  - (Голосов: 0)
Поблагодарили: 0
Поделиться ссылкой на эту раздачу с друзьями:
В контактеFacebookОдноклассникиTwitterLivejournalМой МирLiveinternet
 

 
Показать сообщения:    


Вы не можете начинать темы
Вы не можете отвечать на сообщения
Вы не можете редактировать свои сообщения
Вы не можете удалять свои сообщения
Вы не можете голосовать в опросах
Вы не можете прикреплять файлы к сообщениям
Вы можете скачивать файлы