Loading...
Error

Скачать Воскрешение / Resurrection (Рассел Малкэй) [1999, ужасы, триллер, драма, криминал, детектив, BDRip] [720p] [DVO]+[AVO]+[Eng]+[Sub Rus, Eng]x2 торрент без регистрации

Статистика раздачи
Размер:  7,02 GB   |    Скачан:  28 раз
Сидов:  1  [  0 KB/s  ]  
 
 
 
Автор Сообщение

Marsianka

[] 

Воскрешение

Resurrection

«Be afraid. For he is coming»

Страна: США, Канада
Жанр: ужасы, триллер, драма, криминал, детектив
Год выпуска: 1999
Продолжительность: 01:47:38
Перевод: Профессиональный (двухголосый, закадровый), Авторский
Субтитры: русские, английские
Режиссер: Рассел Малкэй
В ролях: Кристофер Ламберт, Лиленд Орсер, Роберт Джой, Барбара Тайсон, Рик Фокс, Дэвид Кроненберг, Джонатан Поттс, Питер МакНейл, Филип Уильямс, Джейн Иствуд
Описание: Детектив Джон Прудомм получает задание расследовать серию убийств, которые связаны тем, что маньяк - убийца отрезает у умирающих жертв то ногу, то руку, то голову. Не понимая мотивов этих отвратительных преступлений, полиция бессильно наблюдает, как маньяк собирает человеческое тело из кусков других.

MPAA: R - Лицам до 17 лет обязательно присутствие взрослого


Качество: BDRip 720p
Контейнер: MKV

Видео: MPEG-4 AVC, 1280x690 (1.85:1), 7800 kbps, 24 fps, 0,368 bpp
Аудио №1: русский / AC3 / 5.1 / 48 kHz / 448 kbps / DVO
Аудио №2: русский / AC3 / 5.1 / 48 kHz / 448 kbps / Живов
Аудио №3: английский / AC3 / 5.1 / 48 kHz / 640 kbps
Навигация по главам: есть


********************************************************************************
x264 [info]: frame I:845 Avg QP:15.28 size:150948
x264 [info]: frame P:37373 Avg QP:18.25 size: 77725
x264 [info]: frame B:116773 Avg QP:20.56 size: 27938
********************************************************************************

Формат : Matroska
Версия формата : Version 2
Размер файла : 7,02 Гбайт
Продолжительность : 1 ч. 47 м.
Общий поток : 9336 Кбит/сек
Название фильма : = Воскрешение / Resurrection (1999) BDRip 720p - KORSAR =
Дата кодирования : UTC 2018-03-29 15:09:28
Программа кодирования : mkvmerge v5.8.0 ('No Sleep / Pillow') built on Sep 2 2012 15:37:04
Библиотека кодирования : libebml v1.2.3 + libmatroska v1.3.0
Attachment : Yes

Видео
Идентификатор : 1
Формат : AVC
Формат/Информация : Advanced Video Codec
Профиль формата : High@L4.1
Параметр CABAC формата : Да
Параметр ReFrames формата : 8 кадров
Идентификатор кодека : V_MPEG4/ISO/AVC
Продолжительность : 1 ч. 47 м.
Битрейт : 7800 Кбит/сек
Ширина : 1280 пикселей
Высота : 690 пикселей
Соотношение сторон : 1,85:1
Режим частоты кадров : Постоянный
Частота кадров : 24,000 кадра/сек
Цветовое пространство : YUV
Субдискретизация насыщенности : 4:2:0
Битовая глубина : 8 бит
Тип развёртки : Прогрессивная
Бит/(Пиксели*Кадры) : 0.368
Размер потока : 5,72 Гбайт (82%)
Заголовок : Воскрешение / Resurrection (1999) BDRip 720p - KORSAR
Библиотека кодирования : x264 core 148 r2744kMod b97ae06
Настройки программы : cabac=1 / ref=8 / deblock=1:-3:-3 / analyse=0x3:0x113 / me=umh / subme=11 / psy=1 / fade_compensate=0.00 / psy_rd=1.06:0.15 / mixed_ref=1 / me_range=32 / chroma_me=1 / trellis=2 / 8x8dct=1 / cqm=0 / deadzone=21,11 / fast_pskip=0 / chroma_qp_offset=-3 / threads=12 / lookahead_threads=3 / sliced_threads=0 / nr=0 / decimate=0 / interlaced=0 / bluray_compat=0 / constrained_intra=0 / bframes=10 / b_pyramid=2 / b_adapt=2 / b_bias=0 / direct=3 / weightb=1 / open_gop=0 / weightp=2 / keyint=240 / keyint_min=24 / scenecut=40 / intra_refresh=0 / rc_lookahead=60 / rc=2pass / mbtree=0 / bitrate=7800 / ratetol=1.0 / qcomp=0.60 / qpmin=0 / qpmax=39 / qpstep=4 / cplxblur=20.0 / qblur=0.5 / vbv_maxrate=50000 / vbv_bufsize=62500 / nal_hrd=none / filler=0 / ip_ratio=1.40 / pb_ratio=1.30 / aq=3:0.70
Язык : English
Default : Да
Forced : Нет
Основные цвета : BT.709
Характеристики трансфера : BT.709
Коэффициенты матрицы : BT.709

Аудио #1
Идентификатор : 2
Формат : AC-3
Формат/Информация : Audio Coding 3
Расширение режима : CM (complete main)
Параметр Endianness формата : Big
Идентификатор кодека : A_AC3
Продолжительность : 1 ч. 47 м.
Вид битрейта : Постоянный
Битрейт : 448 Кбит/сек
Каналы : 6 каналов
Расположение каналов : Front: L C R, Side: L R, LFE
Частота : 48,0 КГц
Битовая глубина : 16 бит
Метод сжатия : С потерями
Размер потока : 345 Мбайт (5%)
Заголовок : DVO
Язык : Russian
Default : Да
Forced : Нет

Аудио #2
Идентификатор : 3
Формат : AC-3
Формат/Информация : Audio Coding 3
Расширение режима : CM (complete main)
Параметр Endianness формата : Big
Идентификатор кодека : A_AC3
Продолжительность : 1 ч. 47 м.
Вид битрейта : Постоянный
Битрейт : 448 Кбит/сек
Каналы : 6 каналов
Расположение каналов : Front: L C R, Side: L R, LFE
Частота : 48,0 КГц
Битовая глубина : 16 бит
Метод сжатия : С потерями
Размер потока : 345 Мбайт (5%)
Заголовок : AVO ( Живов )
Язык : Russian
Default : Нет
Forced : Нет

Аудио #3
Идентификатор : 4
Формат : AC-3
Формат/Информация : Audio Coding 3
Расширение режима : CM (complete main)
Параметр Endianness формата : Big
Идентификатор кодека : A_AC3
Продолжительность : 1 ч. 47 м.
Вид битрейта : Постоянный
Битрейт : 640 Кбит/сек
Каналы : 6 каналов
Расположение каналов : Front: L C R, Side: L R, LFE
Частота : 48,0 КГц
Битовая глубина : 16 бит
Метод сжатия : С потерями
Размер потока : 493 Мбайт (7%)
Язык : English
Default : Нет
Forced : Нет

Текст #1
Идентификатор : 5
Формат : UTF-8
Идентификатор кодека : S_TEXT/UTF8
Идентификатор кодека/Информация : UTF-8 Plain Text
Язык : Russian
Default : Нет
Forced : Нет

Текст #2
Идентификатор : 6
Формат : UTF-8
Идентификатор кодека : S_TEXT/UTF8
Идентификатор кодека/Информация : UTF-8 Plain Text
Язык : English
Default : Нет
Forced : Нет

Меню
00:00:00.000 : en:00:00:00.000
00:02:00.042 : en:00:02:00.042
00:05:08.042 : en:00:05:08.042
00:17:50.542 : en:00:17:50.542
00:28:42.833 : en:00:28:42.833
00:37:07.542 : en:00:37:07.542
00:47:41.083 : en:00:47:41.083
00:56:15.375 : en:00:56:15.375
01:04:27.708 : en:01:04:27.708
01:12:10.083 : en:01:12:10.083
01:20:50.333 : en:01:20:50.333
01:30:20.792 : en:01:30:20.792
01:37:54.708 : en:01:37:54.708
01:44:29.458 : en:01:44:29.458




Скачать Воскрешение.Resurrection.(Рассел.Малкэй).[1999.ужасы.триллер.драма.криминал.детектив.BDRip].[720p].[DVO]+[AVO]+[Eng]+[Sub.Rus.Eng]x2.torrent без регистрации
Золото ЗОЛОТАЯ РАЗДАЧА! СКАЧАННОЕ НЕ ЗАСЧИТЫВАЕТСЯ! Золото
Дата: Зарегистрирован   [ Тип: внутренний ] Как тут cкачать?
MAGNET ссылка
MAGNET ссылка


Скачать .torrent

36 KB

Статус: проверено DHT
Скачан: торрент - 28 раз, раздача полностью - 3 раз
Размер: 7,02 GB
Оценка:  - (Голосов: 0)
Поблагодарили: 0
Поделиться ссылкой на эту раздачу с друзьями:
В контактеFacebookОдноклассникиTwitterLivejournalМой МирLiveinternet
 

 
Показать сообщения:    


Вы не можете начинать темы
Вы не можете отвечать на сообщения
Вы не можете редактировать свои сообщения
Вы не можете удалять свои сообщения
Вы не можете голосовать в опросах
Вы не можете прикреплять файлы к сообщениям
Вы можете скачивать файлы