Loading...
Error

Скачать Давилка / The Mangler (Тоуб Хупер) [1995, ужасы, детектив, BDRip] [1080p] [DVO (Екатеринбург Арт)] + [ AVO (А. Гаврилов)] [R.G. Goldenshara] торрент без регистрации

Статистика раздачи
Размер:  4,37 GB   |    Скачан:  52 раза
Сидов:  1  [  0 KB/s  ]  
 
 
 
Автор Сообщение

sobmaster

[] 



Давилка
The Mangler




Год выпуска: 1995
Страна: ЮАР , Великобритания
Выпущено: Allied Film Production, Distant Horizons, Filmex Pty. Ltd., New Line Cinema
Слоган: «From the three masters of horror, the ultimate tale of terror is about to begin»
Жанр: ужасы, детектив

Продолжительность: 01:46:06
Перевод #1: Профессиональный (двухголосый, закадровый) (Екатеринбург Арт)
Перевод #2: Авторский (одноголосый, закадровый) (А. Гаврилов)
Режиссер: Тоуб Хупер
Сценарий: Тоуб Хупер, Стивен Дэвид Брукс, Гарри Алан Тауэрс
Продюсер: Ананд Сингх, Кент Адамсон, Рита Мари Бартлетт
Оператор: Амнон Саломон
Композитор: Баррингтон Фелунг
Художник: Дэвид Баркэм, Зак Гроблер, Мойра Энн Мейер
Монтаж: Дэвид Хейтнер
В ролях:


Роберт Инглунд (Bill Gartley), Тед Левайн (John Hunton), Дэниел Мэтмор (Mark Jackson), Джереми Кратчли (Pictureman / Mortician), Ванесса Пайк (Sherry Ouelette), Деметре Филлипс (Stanner), Лиза Моррис (Lin Sue), Вера Блэкер (Mrs. Frawley), Эшли Хейден (Annette Gillian), Дэнни Кеог (Herb Diment), Тед Ле Пла (Dr. Ramos), Тодд Дженсен (Roger Martin), Шон Тейлор (Derrick Gates), Ларри Тейлор (Sheriff Hughes), Одиль Ролт (Alberta), Рон Смержак (Officer Steele)
Сборы в США: $1 781 383
Зрители: США 409.5 тыс.
Мировая премьера: 3 марта 1995
Релиз на DVD: 19 марта 2009, «Союз-Видео»
MPAA: - Лицам до 17 лет обязательно присутствие взрослого

Описание: По повести Стивена Кинга "Мясорубка". Бывалый детектив Джон Хаттон вызван расследовать страшные и непонятные события в мрачных стенах старинной прачечной, чьи работники становятся жертвами гигантской гладильной машины. Кажется, что сам демон повелевает древними механизмами, заставляя их перемалывать кости невинных людей.
Цинику Джону трудно поверить, что ему противостоят могущественные силы зла, но странное поведение владельца прачечной, загадочного Билла Гэртли, лишь усиливает его подозрение…


Качество: BDRip 1080p
Контейнер: MKV
Видео: AVC, 1920x1078 (16:9), 5516 kbps, 23.976 fps, 0.111 bpp
Аудио #1: русский /; AC3 /; 2.0 /; 48 kHz /; 192 kbps /; 16 bit; || DVO (Екатеринбург Арт)
Аудио #2: русский /; AC3 /; 2.0 /; 48 kHz /; 192 kbps /; 16 bit; || AVO (А. Гаврилов)
Субтитры: английские
Навигация по главам: есть

АНОНСЫ ПОПУЛЯРНЫХ РАЗДАЧ

  • В прачечной есть лозунг «Labor makes you free» - это практически дословный перевод фразы, имевшейся во многих нацистских концлагерях — «Arbeit macht frei».

Код:

General
Unique ID                                : 194466342660019089248346978101779411522 (0x924CDAF1B15D91478EFF0A81E6E6B242)
Complete name                            : E:\Мои рипы\Давилка.1995.BDRip.1080p.DVO+AVO.mkv
Format                                   : Matroska
Format version                           : Version 4 / Version 2
File size                                : 4.37 GiB
Duration                                 : 1h 46mn
Overall bit rate                         : 5 902 Kbps
Encoded date                             : UTC 2018-03-29 07:03:04
Writing application                      : mkvmerge v6.8.0 ('Theme for Great Cities') 64bit built on Mar  2 2014 21:34:26
Writing library                          : libebml v1.3.0 + libmatroska v1.4.1

Video
ID                                       : 1
Format                                   : AVC
Format/Info                              : Advanced Video Codec
Format profile                           : High@L4.1
Format settings, CABAC                   : Yes
Format settings, ReFrames                : 4 frames
Codec ID                                 : V_MPEG4/ISO/AVC
Duration                                 : 1h 46mn
Bit rate                                 : 5 516 Kbps
Width                                    : 1 920 pixels
Height                                   : 1 078 pixels
Display aspect ratio                     : 16:9
Frame rate mode                          : Constant
Frame rate                               : 23.976 fps
Color space                              : YUV
Chroma subsampling                       : 4:2:0
Bit depth                                : 8 bits
Scan type                                : Progressive
Bits/(Pixel*Frame)                       : 0.111
Stream size                              : 4.00 GiB (92%)
Writing library                          : x264 core 146 r2538 121396c
Encoding settings                        : cabac=1 / ref=4 / deblock=1:-3:-3 / analyse=0x3:0x113 / me=umh / subme=11 / psy=1 / psy_rd=1.00:0.15 / mixed_ref=1 / me_range=48 / chroma_me=1 / trellis=2 / 8x8dct=1 / cqm=0 / deadzone=21,11 / fast_pskip=0 / chroma_qp_offset=-4 / threads=6 / lookahead_threads=1 / sliced_threads=0 / nr=0 / decimate=0 / interlaced=0 / bluray_compat=0 / constrained_intra=0 / bframes=8 / b_pyramid=2 / b_adapt=2 / b_bias=0 / direct=2 / weightb=1 / open_gop=0 / weightp=2 / keyint=250 / keyint_min=23 / scenecut=40 / intra_refresh=0 / rc_lookahead=50 / rc=2pass / mbtree=0 / bitrate=5516 / ratetol=1.0 / qcomp=0.60 / qpmin=0 / qpmax=69 / qpstep=4 / cplxblur=20.0 / qblur=0.5 / vbv_maxrate=14000 / vbv_bufsize=14000 / nal_hrd=none / filler=0 / ip_ratio=1.40 / pb_ratio=1.30 / aq=2:1.00
Language                                 : English
Default                                  : Yes
Forced                                   : No
Color primaries                          : Generic film
Matrix coefficients                      : YCgCo

Audio #1
ID                                       : 2
Format                                   : AC-3
Format/Info                              : Audio Coding 3
Mode extension                           : CM (complete main)
Format settings, Endianness              : Big
Codec ID                                 : A_AC3
Duration                                 : 1h 46mn
Bit rate mode                            : Constant
Bit rate                                 : 192 Kbps
Channel(s)                               : 2 channels
Channel positions                        : Front: L R
Sampling rate                            : 48.0 KHz
Bit depth                                : 16 bits
Compression mode                         : Lossy
Stream size                              : 146 MiB (3%)
Title                                    : DVO (Екатеринбург Арт)
Language                                 : Russian
Default                                  : Yes
Forced                                   : No

Audio #2
ID                                       : 3
Format                                   : AC-3
Format/Info                              : Audio Coding 3
Mode extension                           : CM (complete main)
Format settings, Endianness              : Big
Codec ID                                 : A_AC3
Duration                                 : 1h 46mn
Bit rate mode                            : Constant
Bit rate                                 : 192 Kbps
Channel(s)                               : 2 channels
Channel positions                        : Front: L R
Sampling rate                            : 48.0 KHz
Bit depth                                : 16 bits
Compression mode                         : Lossy
Stream size                              : 146 MiB (3%)
Title                                    : AVO (А. Гаврилов)
Language                                 : Russian
Default                                  : No
Forced                                   : No

Text
ID                                       : 4
Format                                   : UTF-8
Codec ID                                 : S_TEXT/UTF8
Codec ID/Info                            : UTF-8 Plain Text
Language                                 : English
Default                                  : No
Forced                                   : No

Menu
00:00:00.000                             : en:Chapter 1
00:11:16.676                             : en:Chapter 2
00:17:49.068                             : en:Chapter 3
00:26:51.610                             : en:Chapter 4
00:35:02.100                             : en:Chapter 5
00:41:12.470                             : en:Chapter 6
00:50:42.039                             : en:Chapter 7
01:02:47.764                             : en:Chapter 8
01:10:36.232                             : en:Chapter 9
01:21:36.892                             : en:Chapter 10
01:34:04.639                             : en:Chapter 11
01:38:02.877                             : en:Chapter 12


Раздаю ночью с 0.00 до 7.00 до 5 скачавших. На раздачи не возвращаюсь.





Скачать Давилка.The.Mangler.(Тоуб.Хупер).[1995.ужасы.детектив.BDRip].[1080p].[DVO.(Екатеринбург.Арт)].+.[.AVO.(А.Гаврилов)].[R.G.Goldenshara].torrent без регистрации
Золото ЗОЛОТАЯ РАЗДАЧА! СКАЧАННОЕ НЕ ЗАСЧИТЫВАЕТСЯ! Золото
Дата: Зарегистрирован   [ Тип: внутренний ] Как тут cкачать?
MAGNET ссылка
MAGNET ссылка


Скачать .torrent

23 KB

Статус: проверено DHT
Скачан: торрент - 52 раз, раздача полностью - 25 раз
Размер: 4,37 GB
Оценка:  5 (Голосов: 4)
Поблагодарили: 7
Поделиться ссылкой на эту раздачу с друзьями:
В контактеFacebookОдноклассникиTwitterLivejournalМой МирLiveinternet
 

 

Голден Шура

[] 

sobmaster, спасибо! az Этот рип я заберу ay

P.S. Планируешь полностью риповать по Кингу? Худеющий, Ловец снов, Кристина... ab

P.P.S. Так это очередной эксклюзив? Не сразу заметил что на него BD-рипов нигде нет al
 

sobmaster

[] 

Голден Шура, справедливости ради надо заметить, что и блю-рэй и рипы уже есть в сети (у наследников ХДклаба), но этот рип я сделал задолго до того, как они появились... al

Кинга, конечно буду риповать и дальше, но первым делом выложу рип "1922" (2017), сделанный с UHD исходника.

А там ещё три части "Комендантского часа" ждут не дождутся и ещё хотелось бы 4-й Астрал, но видимо уже не успею... ah
 
Показать сообщения:    


Вы не можете начинать темы
Вы не можете отвечать на сообщения
Вы не можете редактировать свои сообщения
Вы не можете удалять свои сообщения
Вы не можете голосовать в опросах
Вы не можете прикреплять файлы к сообщениям
Вы можете скачивать файлы