Loading...
Error

Скачать Чудо-ребёнок / Prodigy (Алекс Хофи, Брайан Видал) [2017, фантастика, триллер, драма, BDRip] [720p] [MVO (HDrezka Studio)]+[Eng]+[Sub Eng] торрент без регистрации

Статистика раздачи
Размер:  4,14 GB   |    Скачан:  68 раз
Сидов:  1  [  0 KB/s  ]  
 
 
 
Автор Сообщение

МихаНЕзатор

[] 

Информация о фильме
Название: Чудо-ребёнок
Оригинальное название: Prodigy
Год выхода: 2017
Жанр: Фантастика, триллер, драма
Режиссер: Алекс Хофи, Брайан Видал

В ролях: Ричард Нил, Саванна Лилз, Джолин Андерсен, Эмилио Паламе, Дэвид Лински, Харви К. Джонсон, Арал Гриббл, Эйвери Баркдулл, Тревор Кастильо, Пенелопа Фигероа

О фильме: Психолог вступает в опасную схватку умов с маленьким гением, но он не знает, что у девочки есть сверхъестественные способности, что ее жизнь висит на волоске, и только он может спасти ее.



Страна: США
Студия: High Noon California
Продолжительность: 01:20:29
Перевод: Любительский многоголосый | HDrezka Studio

Качество: BDRip 720p
Видео: MPEG-4 AVC, 1280x486, 4569 Kbit/s, 23.976 fps
Звук:
Аудио #01: 48 kHz, AC3, 5.1, 640 Kbps | HDrezka Studio | RUS |
Аудио #02: 48 kHz, DTS, 5.1, 1510 Kbps | HDrezka Studio | RUS |
Аудио #03: 48 kHz, AC3, 5.1, 640 Kbps | Оригинал | ENG |
Субтитры: Английские
General
Unique ID : 251662769250541302292564972851719105141 (0xBD547C7F61EE030B5A1BEF065244EA75)
Complete name : G:Video1Prodigy.2017.BDRip.720p.ExKinoRay.mkv
Format : Matroska
Format version : Version 4 / Version 2
File size : 4.14 GiB
Duration : 1 h 20 min
Overall bit rate : 7 358 kb/s
Movie name : Prodigy 2017 from ExKinoRay
Encoded date : UTC 2018-04-01 04:18:45
Writing application : mkvmerge v21.0.0 ('Tardigrades Will Inherit The Earth') 64-bit
Writing library : libebml v1.3.5 + libmatroska v1.4.8

Video
ID : 1
Format : AVC
Format/Info : Advanced Video Codec
Format profile : High@L4.1
Format settings : CABAC / 13 Ref Frames
Format settings, CABAC : Yes
Format settings, ReFrames : 13 frames
Codec ID : V_MPEG4/ISO/AVC
Duration : 1 h 20 min
Bit rate : 4 569 kb/s
Width : 1 280 pixels
Height : 486 pixels
Display aspect ratio : 2.634
Frame rate mode : Constant
Frame rate : 23.976 (24000/1001) FPS
Color space : YUV
Chroma subsampling : 4:2:0
Bit depth : 8 bits
Scan type : Progressive
Bits/(Pixel*Frame) : 0.306
Stream size : 2.57 GiB (62%)
Writing library : x264 core 148 r2705 3f5ed56
Encoding settings : cabac=1 / ref=13 / deblock=1:-2:-2 / analyse=0x3:0x133 / me=umh / subme=11 / psy=1 / psy_rd=1.05:0.05 / mixed_ref=1 / me_range=32 / chroma_me=1 / trellis=2 / 8x8dct=1 / cqm=0 / deadzone=21,11 / fast_pskip=0 / chroma_qp_offset=-3 / threads=12 / lookahead_threads=2 / sliced_threads=0 / nr=0 / decimate=0 / interlaced=0 / bluray_compat=0 / constrained_intra=0 / bframes=8 / b_pyramid=2 / b_adapt=2 / b_bias=0 / direct=3 / weightb=1 / open_gop=0 / weightp=2 / keyint=240 / keyint_min=23 / scenecut=40 / intra_refresh=0 / rc_lookahead=50 / rc=2pass / mbtree=0 / bitrate=4569 / ratetol=1.0 / qcomp=0.60 / qpmin=0 / qpmax=51 / qpstep=4 / cplxblur=20.0 / qblur=0.5 / vbv_maxrate=50000 / vbv_bufsize=62500 / nal_hrd=none / filler=0 / ip_ratio=1.40 / pb_ratio=1.30 / aq=3:0.80
Language : English
Default : Yes
Forced : No

Audio #1
ID : 2
Format : AC-3
Format/Info : Audio Coding 3
Codec ID : A_AC3
Duration : 1 h 20 min
Bit rate mode : Constant
Bit rate : 640 kb/s
Channel(s) : 6 channels
Channel positions : Front: L C R, Side: L R, LFE
Sampling rate : 48.0 kHz
Frame rate : 31.250 FPS (1536 SPF)
Bit depth : 16 bits
Compression mode : Lossy
Stream size : 368 MiB (9%)
Title : MVO [HDRezka]
Language : Russian
Service kind : Complete Main
Default : Yes
Forced : Yes

Audio #2
ID : 3
Format : DTS
Format/Info : Digital Theater Systems
Codec ID : A_DTS
Duration : 1 h 20 min
Bit rate mode : Constant
Bit rate : 1 509 kb/s
Channel(s) : 6 channels
Channel positions : Front: L C R, Side: L R, LFE
Sampling rate : 48.0 kHz
Frame rate : 93.750 FPS (512 SPF)
Bit depth : 24 bits
Compression mode : Lossy
Stream size : 869 MiB (21%)
Title : MVO [HDRezka]
Language : Russian
Default : No
Forced : No

Audio #3
ID : 4
Format : AC-3
Format/Info : Audio Coding 3
Codec ID : A_AC3
Duration : 1 h 20 min
Bit rate mode : Constant
Bit rate : 640 kb/s
Channel(s) : 6 channels
Channel positions : Front: L C R, Side: L R, LFE
Sampling rate : 48.0 kHz
Frame rate : 31.250 FPS (1536 SPF)
Bit depth : 16 bits
Compression mode : Lossy
Stream size : 368 MiB (9%)
Title : Original
Language : English
Service kind : Complete Main
Default : No
Forced : No

Text
ID : 5
Format : UTF-8
Codec ID : S_TEXT/UTF8
Codec ID/Info : UTF-8 Plain Text
Duration : 1 h 11 min
Bit rate : 63 b/s
Count of elements : 1006
Stream size : 33.7 KiB (0%)
Title : Full
Language : English
Default : No
Forced : No

Menu
00:00:00.000 : en:00:00:00.000
00:08:32.178 : en:00:08:32.178
00:18:31.527 : en:00:18:31.527
00:28:28.040 : en:00:28:28.040
00:38:46.449 : en:00:38:46.449
00:47:44.153 : en:00:47:44.153
00:57:20.270 : en:00:57:20.270
01:06:28.443 : en:01:06:28.443



Скачать Чудо-ребёнок.Prodigy.(Алекс.Хофи.Брайан.Видал).[2017.фантастика.триллер.драма.BDRip].[720p].[MVO.(HDrezka.Studio)]+[Eng]+[Sub.Eng].torrent без регистрации
Золото ЗОЛОТАЯ РАЗДАЧА! СКАЧАННОЕ НЕ ЗАСЧИТЫВАЕТСЯ! Золото
Дата: Зарегистрирован   [ Тип: внутренний ] Как тут cкачать?
MAGNET ссылка
MAGNET ссылка


Скачать .torrent

22 KB

Статус: проверено DHT
Скачан: торрент - 68 раз, раздача полностью - 84 раз
Размер: 4,14 GB
Оценка:  - (Голосов: 0)
Поблагодарили: 4
Поделиться ссылкой на эту раздачу с друзьями:
В контактеFacebookОдноклассникиTwitterLivejournalМой МирLiveinternet
 

 
Показать сообщения:    


Вы не можете начинать темы
Вы не можете отвечать на сообщения
Вы не можете редактировать свои сообщения
Вы не можете удалять свои сообщения
Вы не можете голосовать в опросах
Вы не можете прикреплять файлы к сообщениям
Вы можете скачивать файлы