Loading...
Error

Скачать Чудо-ребёнок / Prodigy (Алекс Хофи, Брайан Видал) [2017, фантастика, триллер, драма, BDRemux] [1080p] [MVO (HDrezka Studio)]+[Eng]+[Sub Eng] торрент без регистрации

Статистика раздачи
Размер:  21,38 GB   |    Скачан:  64 раза
Сидов:  1  [  0 KB/s  ]  
 
 
 
Автор Сообщение

МихаНЕзатор

[] 

Информация о фильме
Название: Чудо-ребёнок
Оригинальное название: Prodigy
Год выхода: 2017
Жанр: Фантастика, триллер, драма
Режиссер: Алекс Хофи, Брайан Видал

В ролях: Ричард Нил, Саванна Лилз, Джолин Андерсен, Эмилио Паламе, Дэвид Лински, Харви К. Джонсон, Арал Гриббл, Эйвери Баркдулл, Тревор Кастильо, Пенелопа Фигероа

О фильме: Психолог вступает в опасную схватку умов с маленьким гением, но он не знает, что у девочки есть сверхъестественные способности, что ее жизнь висит на волоске, и только он может спасти ее.



Страна: США
Студия: High Noon California
Продолжительность: 01:20:29
Перевод: Любительский многоголосый | HDrezka Studio

Качество: BDRemux 1080p
Видео: MPEG-4 AVC, 1920x1080, 31.7 Mbit/s, 23.976 fps
Звук:
Аудио #01: 48 kHz, AC3, 5.1, 640 Kbps | HDrezka Studio | RUS |
Аудио #02: 48 kHz, DTS-HD MA, 5.1, 3840 Kbps | HDrezka Studio | RUS |
Аудио #03: 48 kHz, DTS-HD MA, 5.1, 1865 Kbps | Оригинал | ENG |
Субтитры: Английские
General
Unique ID : 93756206811622778107125270406331361770 (0x4688C9E2CEDE79B18F20C45A854BE9EA)
Complete name : G:Video1Prodigy.2017.BDREMUX.1080p.ExKinoRay.mkv
Format : Matroska
Format version : Version 4 / Version 2
File size : 21.4 GiB
Duration : 1 h 20 min
Overall bit rate : 38.0 Mb/s
Movie name : Prodigy 2017 from ExKinoRay
Encoded date : UTC 2018-04-01 04:22:22
Writing application : mkvmerge v21.0.0 ('Tardigrades Will Inherit The Earth') 64-bit
Writing library : libebml v1.3.5 + libmatroska v1.4.8

Video
ID : 1
Format : AVC
Format/Info : Advanced Video Codec
Format profile : High@L4.1
Format settings : CABAC / 4 Ref Frames
Format settings, CABAC : Yes
Format settings, ReFrames : 4 frames
Format settings, GOP : M=3, N=12
Codec ID : V_MPEG4/ISO/AVC
Duration : 1 h 20 min
Bit rate mode : Constant
Bit rate : 31.7 Mb/s
Nominal bit rate : 34.0 Mb/s
Width : 1 920 pixels
Height : 1 080 pixels
Display aspect ratio : 16:9
Frame rate mode : Constant
Frame rate : 23.976 (24000/1001) FPS
Color space : YUV
Chroma subsampling : 4:2:0
Bit depth : 8 bits
Scan type : Progressive
Bits/(Pixel*Frame) : 0.637
Stream size : 17.8 GiB (83%)
Language : English
Default : Yes
Forced : No

Audio #1
ID : 2
Format : AC-3
Format/Info : Audio Coding 3
Codec ID : A_AC3
Duration : 1 h 20 min
Bit rate mode : Constant
Bit rate : 640 kb/s
Channel(s) : 6 channels
Channel positions : Front: L C R, Side: L R, LFE
Sampling rate : 48.0 kHz
Frame rate : 31.250 FPS (1536 SPF)
Bit depth : 16 bits
Compression mode : Lossy
Stream size : 368 MiB (2%)
Title : MVO [HDRezka]
Language : Russian
Service kind : Complete Main
Default : Yes
Forced : Yes

Audio #2
ID : 3
Format : DTS
Format/Info : Digital Theater Systems
Format profile : MA / Core
Codec ID : A_DTS
Duration : 1 h 20 min
Bit rate mode : Variable / Constant
Bit rate : 3 840 kb/s / 1 509 kb/s
Channel(s) : 6 channels
Channel positions : Front: L C R, Side: L R, LFE
Sampling rate : 48.0 kHz
Frame rate : 93.750 FPS (512 SPF)
Bit depth : 24 bits
Compression mode : Lossless / Lossy
Stream size : 2.16 GiB (10%)
Title : MVO [HDRezka]
Language : Russian
Default : No
Forced : No

Audio #3
ID : 4
Format : DTS
Format/Info : Digital Theater Systems
Format profile : MA / Core
Codec ID : A_DTS
Duration : 1 h 20 min
Bit rate mode : Variable / Constant
Bit rate : 1 865 kb/s / 1 509 kb/s
Channel(s) : 6 channels
Channel positions : Front: L C R, Side: L R, LFE
Sampling rate : 48.0 kHz
Frame rate : 93.750 FPS (512 SPF)
Bit depth : 24 bits
Compression mode : Lossless / Lossy
Stream size : 1.05 GiB (5%)
Title : Original
Language : English
Default : No
Forced : No

Text
ID : 5
Format : UTF-8
Codec ID : S_TEXT/UTF8
Codec ID/Info : UTF-8 Plain Text
Duration : 1 h 11 min
Bit rate : 63 b/s
Count of elements : 1006
Stream size : 33.7 KiB (0%)
Title : Full
Language : English
Default : No
Forced : No

Menu
00:00:00.000 : en:00:00:00.000
00:08:32.178 : en:00:08:32.178
00:18:31.527 : en:00:18:31.527
00:28:28.040 : en:00:28:28.040
00:38:46.449 : en:00:38:46.449
00:47:44.153 : en:00:47:44.153
00:57:20.270 : en:00:57:20.270
01:06:28.443 : en:01:06:28.443



Скачать Чудо-ребёнок.Prodigy.(Алекс.Хофи.Брайан.Видал).[2017.фантастика.триллер.драма.BDRemux].[1080p].[MVO.(HDrezka.Studio)]+[Eng]+[Sub.Eng].torrent без регистрации
Золото ЗОЛОТАЯ РАЗДАЧА! СКАЧАННОЕ НЕ ЗАСЧИТЫВАЕТСЯ! Золото
Дата: Зарегистрирован   [ Тип: внутренний ] Как тут cкачать?
MAGNET ссылка
MAGNET ссылка


Скачать .torrent

108 KB

Статус: проверено DHT
Скачан: торрент - 64 раз, раздача полностью - 28 раз
Размер: 21,38 GB
Оценка:  - (Голосов: 0)
Поблагодарили: 2
Поделиться ссылкой на эту раздачу с друзьями:
В контактеFacebookОдноклассникиTwitterLivejournalМой МирLiveinternet
 

 
Показать сообщения:    


Вы не можете начинать темы
Вы не можете отвечать на сообщения
Вы не можете редактировать свои сообщения
Вы не можете удалять свои сообщения
Вы не можете голосовать в опросах
Вы не можете прикреплять файлы к сообщениям
Вы можете скачивать файлы