Loading...
Error

Скачать Зеркало / Looking Glass (Тим Хантер) [2018, триллер, BDRemux] [1080p] [MVO (HDrezka Studio)]+[Eng]+[Sub Eng] торрент без регистрации

Статистика раздачи
Размер:  24,23 GB   |    Скачан:  43 раза
Сидов:  3  [  0 KB/s  ]  
 
 
 
Автор Сообщение

МихаНЕзатор

[] 

Информация о фильме
Название: Зеркало
Оригинальное название: Looking Glass
Год выхода: 2018
Жанр: триллер
Режиссер: Тим Хантер

В ролях: Николас Кейдж, Робин Танни, Марк Блукас, Эрни Лайвли, Жак Грэй, Конуэй, Билл Болендер, Джейсон К. Уиксом, Сила Агавале

О фильме: Рэй с женой купили уединенный мотель в пустыне в надежде начать жизнь с чистого листа. Но мирная и размеренная жизнь постепенно начинает трещать по швам, когда Рэй обнаруживает двойное зеркало, через которое можно увидеть всё, что происходит в одном из номеров. И когда в мотеле пропадает постоялица, то подозрение падает на владельцев.

Релиз от:

Silverok

Страна: Канада, США
Студия: Kirk Shaw Productions, Prettybird, Silver State Production Services
Продолжительность: 01:43:39
Перевод: Любительский многоголосый,закадровый

Файл
Кодек: h.264
Качество: BDRemux 1080p
Видео: MPEG-4 AVC, 29.9 Mбит/с, 1920x1080, 23,976 кадр/с
Звук:
Русский (AC3, 2 ch, 192 Кбит/с) / Любительский многоголосый (HDrezka Studio)
Английский (DTS-HD MA, 6 ch, 1830 Кбит/с)
Английский (DTS, 6 ch, 1509 Кбит/с)
Субтитры: Английские
General
Unique ID : 115710013130335337151239871269350222563 (0x570CF01B37D5A8D3140807CC950D2AE3)
Complete name : D:uTorrentZerkalo.2018.BDRemux.1080p.MediaClub.mkv
Format : Matroska
Format version : Version 4 / Version 2
File size : 24.2 GiB
Duration : 1 h 43 min
Overall bit rate mode : Variable
Overall bit rate : 33.5 Mb/s
Encoded date : UTC 2018-03-29 22:04:28
Writing application : mkvmerge v19.0.0 ('Brave Captain') 64-bit
Writing library : libebml v1.3.5 + libmatroska v1.4.8
Cover : Yes
Attachments : cover.jpg

Video
ID : 1
Format : AVC
Format/Info : Advanced Video Codec
Format profile : High@L4.1
Format settings : CABAC / 4 Ref Frames
Format settings, CABAC : Yes
Format settings, RefFrames : 4 frames
Codec ID : V_MPEG4/ISO/AVC
Duration : 1 h 43 min
Bit rate mode : Variable
Bit rate : 29.9 Mb/s
Maximum bit rate : 35.0 Mb/s
Width : 1 920 pixels
Height : 1 080 pixels
Display aspect ratio : 16:9
Frame rate mode : Constant
Frame rate : 23.976 (24000/1001) FPS
Standard : NTSC
Color space : YUV
Chroma subsampling : 4:2:0
Bit depth : 8 bits
Scan type : Progressive
Bits/(Pixel*Frame) : 0.602
Stream size : 21.7 GiB (89%)
Title : BDRemux by Silverok
Default : Yes
Forced : No
Color range : Limited
Color primaries : BT.709
Transfer characteristics : BT.709
Matrix coefficients : BT.709

Audio #1
ID : 2
Format : AC-3
Format/Info : Audio Coding 3
Codec ID : A_AC3
Duration : 1 h 43 min
Bit rate mode : Constant
Bit rate : 192 kb/s
Channel(s) : 2 channels
Channel positions : Front: L R
Sampling rate : 48.0 kHz
Frame rate : 31.250 FPS (1536 SPF)
Bit depth : 16 bits
Compression mode : Lossy
Stream size : 142 MiB (1%)
Title : Любительский многоголосый (HDrezka Studio)
Language : Russian
Service kind : Complete Main
Default : Yes
Forced : No

Audio #2
ID : 3
Format : DTS
Format/Info : Digital Theater Systems
Format profile : MA / Core
Codec ID : A_DTS
Duration : 1 h 43 min
Bit rate mode : Variable / Constant
Bit rate : 1 830 kb/s / 1 509 kb/s
Channel(s) : 6 channels
Channel positions : Front: L C R, Side: L R, LFE
Sampling rate : 48.0 kHz
Frame rate : 93.750 FPS (512 SPF)
Bit depth : 16 bits
Compression mode : Lossless / Lossy
Stream size : 1.32 GiB (5%)
Language : English
Default : No
Forced : No

Audio #3
ID : 4
Format : DTS
Format/Info : Digital Theater Systems
Codec ID : A_DTS
Duration : 1 h 43 min
Bit rate mode : Constant
Bit rate : 1 509 kb/s
Channel(s) : 6 channels
Channel positions : Front: L C R, Side: L R, LFE
Sampling rate : 48.0 kHz
Frame rate : 93.750 FPS (512 SPF)
Bit depth : 16 bits
Compression mode : Lossy
Stream size : 1.09 GiB (5%)
Language : English
Default : No
Forced : No

Text
ID : 5
Format : UTF-8
Codec ID : S_TEXT/UTF8
Codec ID/Info : UTF-8 Plain Text
Duration : 1 h 42 min
Bit rate : 41 b/s
Count of elements : 972
Stream size : 31.0 KiB (0%)
Title : Full
Language : English
Default : Yes
Forced : No

Menu
00:00:00.000 : en:Chapter 01
00:04:18.841 : en:Chapter 02
00:10:04.562 : en:Chapter 03
00:17:02.771 : en:Chapter 04
00:24:42.105 : en:Chapter 05
00:32:08.760 : en:Chapter 06
00:40:35.015 : en:Chapter 07
00:45:33.439 : en:Chapter 08
00:53:29.497 : en:Chapter 09
01:01:07.080 : en:Chapter 10
01:05:08.112 : en:Chapter 11
01:10:38.901 : en:Chapter 12
01:18:02.844 : en:Chapter 13
01:27:03.843 : en:Chapter 14
01:32:52.775 : en:Chapter 15
01:40:57.968 : en:Chapter 16



Скачать Зеркало.Looking.Glass.(Тим.Хантер).[2018.триллер.BDRemux].[1080p].[MVO.(HDrezka.Studio)]+[Eng]+[Sub.Eng].torrent без регистрации
Золото ЗОЛОТАЯ РАЗДАЧА! СКАЧАННОЕ НЕ ЗАСЧИТЫВАЕТСЯ! Золото
Дата: Зарегистрирован   [ Тип: внешний ] Как тут cкачать?
MAGNET ссылка
MAGNET ссылка


Скачать .torrent

62 KB

Статус: проверено DHT
Скачан: торрент - 43 раз, раздача полностью - 14 раз
Размер: 24,23 GB
Оценка:  - (Голосов: 0)
Поблагодарили: 3
Поделиться ссылкой на эту раздачу с друзьями:
В контактеFacebookОдноклассникиTwitterLivejournalМой МирLiveinternet
 

 
Показать сообщения:    


Вы не можете начинать темы
Вы не можете отвечать на сообщения
Вы не можете редактировать свои сообщения
Вы не можете удалять свои сообщения
Вы не можете голосовать в опросах
Вы не можете прикреплять файлы к сообщениям
Вы можете скачивать файлы