Loading...
Error

Скачать О теле и душе / Testről és Lélekről / On Body and Soul (Ильдико Эньеди) [2017, драма, мелодрама, BDRip] [1080p] [MVO] [Лицензия] [iTunes] [R.G. Goldenshara] торрент без регистрации

Статистика раздачи
Размер:  4,37 GB   |    Скачан:  56 раз
Сидов:  1  [  0 KB/s  ]  
 
 
 
Автор Сообщение

sobmaster

[] 



О теле и душе
Testről és Lélekről / On Body and Soul




Год выпуска: 2017
Страна: Венгрия
Выпущено: Inforg-M&M Film Kft
Жанр: драма, мелодрама

Продолжительность: 01:55:53
Перевод: Профессиональный (многоголосый, закадровый) (iTunes)
Режиссер: Ильдико Эньеди
Сценарий: Ильдико Эньеди
Продюсер: Эрнё Мештерхази, Андраш Мухи, Моника Меч
Оператор: Мате Хербаи
Композитор: Адам Балаж
Художник: Имола Ланг, Юдит Шинкович
Монтаж: Карой Салаи
В ролях:


Геза Морчани (Endre), Александра Борбей (Mária), Золтан Шнайдер (Jenö), Эрвин Надь (Sanyi), Тамаш Йордан (Mária's doctor), Жужа Яро (Zsuzsa), Река Тенки (Klára), Юлия Ньяко (Rózsi), Итала Бекеш (Zsóka), Эва Бата (Köves Jutka), Иштван Колош (Surgeon)
Сборы в России: $62 409
Зрители: Россия 17 тыс.
Мировая премьера: 10 февраля 2017
Премьера (РФ):12 октября 2017, «Русский Репортаж»
Цифровой релиз: 13 ноября 2017, «Русский репортаж»
MPAA: - Лицам до 17 лет обязательно присутствие взрослого

Описание: Сторонящаяся людей Мария и общительный, но одинокий Эндре — коллеги. Оба ведут замкнутый образ жизни и стараются избегать общения друг с другом. Неожиданно для себя они узнают, что каждую ночь им снятся одинаковые сны. Видя в этом некий знак, герои решаются на сближение. Открывшись друг другу, Эндре и Мария окажутся в водовороте комических и даже шокирующих событий…


Качество: BDRip 1080p
Контейнер: MKV
Видео: AVC, 1920x804 (2.40:1), 5016 kbps, 24.000 fps, 0.135 bpp
Аудио: русский /; AC3 /; 5.1 /; 48 kHz /; 384 kbps /; 16 bit; ||
Субтитры: русские
Навигация по главам: есть

АНОНСЫ ПОПУЛЯРНЫХ РАЗДАЧ

  • Александра Борбей и Эрвин Надь, исполнившие роли Марии и Саньи, являются мужем и женой.

Код:

General
Unique ID                                : 240144339344024804205329715117150013258 (0xB4AA1E0EB2B494EABAFA5B64C461874A)
Complete name                            : E:\Мои рипы\О теле и душе.2017.BDRip.1080p.MVO.mkv
Format                                   : Matroska
Format version                           : Version 4 / Version 2
File size                                : 4.37 GiB
Duration                                 : 1h 55mn
Overall bit rate                         : 5 401 Kbps
Encoded date                             : UTC 2018-04-01 07:13:04
Writing application                      : mkvmerge v6.8.0 ('Theme for Great Cities') 64bit built on Mar  2 2014 21:34:26
Writing library                          : libebml v1.3.0 + libmatroska v1.4.1
Attachment                               : Рћ теле Рё душе / Рћ теле Рё душе

Video
ID                                       : 1
Format                                   : AVC
Format/Info                              : Advanced Video Codec
Format profile                           : High@L4.1
Format settings, CABAC                   : Yes
Format settings, ReFrames                : 5 frames
Codec ID                                 : V_MPEG4/ISO/AVC
Duration                                 : 1h 55mn
Bit rate                                 : 5 016 Kbps
Width                                    : 1 920 pixels
Height                                   : 804 pixels
Display aspect ratio                     : 2.40:1
Frame rate mode                          : Constant
Frame rate                               : 24.000 fps
Color space                              : YUV
Chroma subsampling                       : 4:2:0
Bit depth                                : 8 bits
Scan type                                : Progressive
Bits/(Pixel*Frame)                       : 0.135
Stream size                              : 3.97 GiB (91%)
Writing library                          : x264 core 146 r2538 121396c
Encoding settings                        : cabac=1 / ref=5 / deblock=1:-3:-3 / analyse=0x3:0x113 / me=umh / subme=11 / psy=1 / psy_rd=1.00:0.15 / mixed_ref=1 / me_range=48 / chroma_me=1 / trellis=2 / 8x8dct=1 / cqm=0 / deadzone=21,11 / fast_pskip=0 / chroma_qp_offset=-4 / threads=6 / lookahead_threads=1 / sliced_threads=0 / nr=0 / decimate=0 / interlaced=0 / bluray_compat=0 / constrained_intra=0 / bframes=8 / b_pyramid=2 / b_adapt=2 / b_bias=0 / direct=2 / weightb=1 / open_gop=0 / weightp=2 / keyint=250 / keyint_min=24 / scenecut=40 / intra_refresh=0 / rc_lookahead=50 / rc=2pass / mbtree=0 / bitrate=5016 / ratetol=1.0 / qcomp=0.60 / qpmin=0 / qpmax=69 / qpstep=4 / cplxblur=20.0 / qblur=0.5 / vbv_maxrate=14000 / vbv_bufsize=14000 / nal_hrd=none / filler=0 / ip_ratio=1.40 / pb_ratio=1.30 / aq=2:1.00
Language                                 : Hungarian
Default                                  : Yes
Forced                                   : No
Color primaries                          : Generic film
Matrix coefficients                      : YCgCo

Audio
ID                                       : 2
Format                                   : AC-3
Format/Info                              : Audio Coding 3
Mode extension                           : CM (complete main)
Format settings, Endianness              : Big
Codec ID                                 : A_AC3
Duration                                 : 1h 55mn
Bit rate mode                            : Constant
Bit rate                                 : 384 Kbps
Channel(s)                               : 6 channels
Channel positions                        : Front: L C R, Side: L R, LFE
Sampling rate                            : 48.0 KHz
Bit depth                                : 16 bits
Compression mode                         : Lossy
Stream size                              : 318 MiB (7%)
Title                                    : MVO (iTunes)
Language                                 : Russian
Default                                  : Yes
Forced                                   : No

Text
ID                                       : 3
Format                                   : UTF-8
Codec ID                                 : S_TEXT/UTF8
Codec ID/Info                            : UTF-8 Plain Text
Title                                    : full
Language                                 : Russian
Default                                  : No
Forced                                   : No

Menu
00:00:00.000                             : en:Chapter 1
00:09:02.208                             : en:Chapter 2
00:18:00.833                             : en:Chapter 3
00:26:59.750                             : en:Chapter 4
00:36:25.416                             : en:Chapter 5
00:45:04.750                             : en:Chapter 6
00:55:45.125                             : en:Chapter 7
01:04:59.291                             : en:Chapter 8
01:13:50.583                             : en:Chapter 9
01:23:13.583                             : en:Chapter 10
01:32:30.625                             : en:Chapter 11
01:40:19.083                             : en:Chapter 12
01:51:40.416                             : en:Chapter 13
01:55:52.583                             : en:Chapter 14


Раздаю ночью с 0.00 до 7.00 до 5 скачавших. На раздачи не возвращаюсь.





Скачать О.теле.и.душе.Testről.és.Lélekről.On.Body.and.Soul.(Ильдико.Эньеди).[2017.драма.мелодрама.BDRip].[1080p].[MVO].[Лицензия].[iTunes].[R.G.Goldenshara].torrent без регистрации
Золото ЗОЛОТАЯ РАЗДАЧА! СКАЧАННОЕ НЕ ЗАСЧИТЫВАЕТСЯ! Золото
Дата: Зарегистрирован   [ Тип: внутренний ] Как тут cкачать?
MAGNET ссылка
MAGNET ссылка


Скачать .torrent

22 KB

Статус: проверено DHT
Скачан: торрент - 56 раз, раздача полностью - 19 раз
Размер: 4,37 GB
Оценка:  5 (Голосов: 5)
Поблагодарили: 8
Поделиться ссылкой на эту раздачу с друзьями:
В контактеFacebookОдноклассникиTwitterLivejournalМой МирLiveinternet
 

 
Показать сообщения:    


Вы не можете начинать темы
Вы не можете отвечать на сообщения
Вы не можете редактировать свои сообщения
Вы не можете удалять свои сообщения
Вы не можете голосовать в опросах
Вы не можете прикреплять файлы к сообщениям
Вы можете скачивать файлы