Loading...
Error

Скачать Ашрам / The Ashram (Бен Рекхи) [2018, фэнтези, триллер, WEBRip] [720p] [DVO (HiWay Grope)] торрент без регистрации

Статистика раздачи
Размер:  2,1 GB   |    Скачан:  90 раз
Сидов:  2  [  0 KB/s  ]  
 
 
 
Автор Сообщение

МихаНЕзатор

[] 

Информация о фильме
Название: Ашрам
Оригинальное название: The Ashram
Год выхода: 2018
Жанр: фэнтези, триллер
Режиссер: Бен Рекхи

В ролях: Сэм Кили, Маноэль Орфанаки, Гера Хилмарсдоттир, Кэл Пенн, Радхика Апте, Мелисса Лео, Каллиррой Циафета, Захари Соффин и другие

О фильме: Американец Джэйми отправляется в индийские Гималаи, чтобы отыскать пропавшую подругу, с которой он сам расстался. Там парень обнаруживает общину, во главе которой стоит гуру со сверхъестественными способностями. Возможно, община причастна к исчезновению девушки, а может быть и нет, но её члены явно что-то скрывают.



Релиз от: HiWay Grope

Страна: Индия, США, Sikhya Entertainment
Продолжительность: 01:29:42
Перевод: Любительский (двухголосый закадровый) | HiWay Grope

Файл
Кодек: MPEG-4 AVC/x.264
Качество: WEBRip 720p
Видео: 1280x544, 23.976 fps, ~2897 kbps, 0.172 bit/pixel
Звук:
Аудио rus: AC3, 48 kHz, 6 ch, 384 Kbps
Субтитры: отсутствуют

General
Unique ID : 99293392448351103243738905521541679005 (0x4AB3363730373CE8D6B6DE86635D079D)
Complete name : E:The.Ashram.2018.720p.WEBRip.HiWayGropeThe.Ashram.2018.720p.WEBRip.HiWayGrope.mkv
Format : Matroska
Format version : Version 4 / Version 2
File size : 2.10 GiB
Duration : 1h 29mn
Overall bit rate : 3 348 Kbps
Encoded date : UTC 2018-04-02 15:38:03
Writing application : mkvmerge v21.0.0 ('Tardigrades Will Inherit The Earth') 64-bit
Writing library : libebml v1.3.5 + libmatroska v1.4.8

Video
ID : 1
Format : AVC
Format/Info : Advanced Video Codec
Format profile : Main@L4.1
Format settings, CABAC : Yes
Format settings, ReFrames : 4 frames
Codec ID : V_MPEG4/ISO/AVC
Duration : 1h 29mn
Bit rate : 2 897 Kbps
Width : 1 280 pixels
Height : 544 pixels
Display aspect ratio : 2.35:1
Frame rate mode : Constant
Frame rate : 23.976 (24000/1001) fps
Standard : NTSC
Color space : YUV
Chroma subsampling : 4:2:0
Bit depth : 8 bits
Scan type : Progressive
Bits/(Pixel*Frame) : 0.174
Stream size : 1.82 GiB (87%)
Language : English
Default : Yes
Forced : No
Color range : Limited
Color primaries : BT.601 NTSC
Transfer characteristics : BT.601
Matrix coefficients : BT.601

Audio
ID : 2
Format : AC-3
Format/Info : Audio Coding 3
Mode extension : CM (complete main)
Format settings, Endianness : Big
Codec ID : A_AC3
Duration : 1h 29mn
Bit rate mode : Constant
Bit rate : 384 Kbps
Channel(s) : 6 channels
Channel positions : Front: L C R, Side: L R, LFE
Sampling rate : 48.0 KHz
Frame rate : 31.250 fps (1536 spf)
Compression mode : Lossy
Stream size : 246 MiB (11%)
Title : rus
Language : Russian
Default : Yes
Forced : No



Скачать Ашрам.The.Ashram.(Бен.Рекхи).[2018.фэнтези.триллер.WEBRip].[720p].[DVO.(HiWay.Grope)].torrent без регистрации
Золото ЗОЛОТАЯ РАЗДАЧА! СКАЧАННОЕ НЕ ЗАСЧИТЫВАЕТСЯ! Золото
Дата: Зарегистрирован   [ Тип: внутренний ] Как тут cкачать?
MAGNET ссылка
MAGNET ссылка


Скачать .torrent

11 KB

Статус: проверено DHT
Скачан: торрент - 90 раз, раздача полностью - 100 раз
Размер: 2,1 GB
Оценка:  - (Голосов: 0)
Поблагодарили: 6
Поделиться ссылкой на эту раздачу с друзьями:
В контактеFacebookОдноклассникиTwitterLivejournalМой МирLiveinternet
 

 
Показать сообщения:    


Вы не можете начинать темы
Вы не можете отвечать на сообщения
Вы не можете редактировать свои сообщения
Вы не можете удалять свои сообщения
Вы не можете голосовать в опросах
Вы не можете прикреплять файлы к сообщениям
Вы можете скачивать файлы