Loading...
Error

Скачать Nat Geo Wild: Ночь льва / Night of the Lion [2010, документальный, HDTV] [1080i] [Dub]+[Eng] торрент без регистрации

Статистика раздачи
Размер:  4,55 GB   |    Скачан:  31 раз

Полного источника не было: 30 минут

 
 
 
Автор Сообщение

Marsianka

[] 

Информация о фильме
Название: Ночь льва
Оригинальное: Night of the Lion
Год выхода: 2010
Жанр: документальный

О фильме:
Узнайте неизведанное, загляните в скрытый мир ночной саванны. Ночь, какой её ещё никогда не видели. Камеры повышенной светочувствительности с тепловым наведением, проникают в кромешную тьму, предоставляя наилучший вид. Проследите за действием львов, в период наибольшей активности. Понаблюдайте, как они используют темноту, себе во благо и навсегда измените своё представление о них. Ночью для львов начинается трудовой день и следить за ними нужно в "рабочее время". Ночная съёмка показывает, что львы вовсе не ленивые бездельники какими они представляются днём.

Страна: США
Продолжительность: 00:45:00
Перевод: Дублированный

Файл
Кодек: MPEG-4 AVC
Качество: HDTV 1080i
Видео: 1920x1080, 13,4 Мбит/с, 25 кадр/с
Аудио 1: Русский, AC-3, 2 канала, 192 Кбит/с
Аудио 2: Английский, AC-3, 2 канала, 192 Кбит/с
Общее
Идентификатор : 1 (0x1)
Полное имя : C:UsersDDesktopNight of the Lion (Rus, Eng, HDTV-1080i, h264, AC3) [2010].ts
Формат : MPEG-TS
Размер файла : 4,55 Гбайт
Продолжительность : 45 м. 0 с.
Режим общего битрейта : Переменный
Общий поток : 14,5 Мбит/сек
Максимальный общий битрейт : 35,5 Мбит/сек

Видео
Идентификатор : 4113 (0x1011)
Идентификатор меню : 1 (0x1)
Формат : AVC
Формат/Информация : Advanced Video Codec
Профиль формата : Main@L4
Настройки формата : CABAC / 3 Ref Frames
Параметр CABAC формата : Да
Параметр RefFrames формата : 3 кадра
Идентификатор кодека : 27
Продолжительность : 45 м. 0 с.
Вид битрейта : Переменный
Битрейт : 13,4 Мбит/сек
Максимальный битрейт : 40,0 Мбит/сек
Ширина : 1920 пикселей
Высота : 1080 пикселей
Соотношение сторон : 16:9
Частота кадров : 25,000 кадров/сек
Стандарт вещания : Component
Цветовое пространство : YUV
Субдискретизация насыщенности : 4:2:0
Битовая глубина : 8 бит
Тип развёртки : Чересстрочная
Метод сохранения типа развёртки : Раздельные поля
Порядок развёртки : Верхнее поле первое
Бит/(Пиксели*Кадры) : 0.258
Размер потока : 4,21 Гбайт (92%)
Цветовой диапазон : Limited
Основные цвета : BT.709
Характеристики трансфера : BT.709
Коэффициенты матрицы : BT.709

Аудио #1
Идентификатор : 4352 (0x1100)
Идентификатор меню : 1 (0x1)
Формат : AC-3
Формат/Информация : Audio Coding 3
Идентификатор кодека : 129
Продолжительность : 44 м. 58 с.
Вид битрейта : Постоянный
Битрейт : 192 Кбит/сек
Каналы : 2 канала
Расположение каналов : Front: L R
Частота : 48,0 КГц
Частота кадров : 31,250 кадров/сек (1536 SPF)
Битовая глубина : 16 бит
Метод сжатия : С потерями
Задержка видео : 24 мс.
Размер потока : 61,8 Мбайт (1%)
Язык : Russian

Аудио #2
Идентификатор : 4353 (0x1101)
Идентификатор меню : 1 (0x1)
Формат : AC-3
Формат/Информация : Audio Coding 3
Идентификатор кодека : 129
Продолжительность : 44 м. 59 с.
Вид битрейта : Постоянный
Битрейт : 192 Кбит/сек
Каналы : 2 канала
Расположение каналов : Front: L R
Частота : 48,0 КГц
Частота кадров : 31,250 кадров/сек (1536 SPF)
Битовая глубина : 16 бит
Метод сжатия : С потерями
Задержка видео : 70 мс.
Размер потока : 61,8 Мбайт (1%)
Язык : English



Скачать Nat.Geo.Wild.Ночь.льва.Night.of.the.Lion.[2010.документальный.HDTV].[1080i].[Dub]+[Eng].torrent без регистрации
Золото ЗОЛОТАЯ РАЗДАЧА! СКАЧАННОЕ НЕ ЗАСЧИТЫВАЕТСЯ! Золото
Дата: Зарегистрирован   [ Тип: внутренний ] Как тут cкачать?
MAGNET ссылка
MAGNET ссылка


Скачать .torrent

24 KB

Статус: проверено DHT
Скачан: торрент - 31 раз, раздача полностью - 0 раз
Размер: 4,55 GB
Оценка:  - (Голосов: 0)
Поблагодарили: 0
Поделиться ссылкой на эту раздачу с друзьями:
В контактеFacebookОдноклассникиTwitterLivejournalМой МирLiveinternet
 

 
Показать сообщения:    


Вы не можете начинать темы
Вы не можете отвечать на сообщения
Вы не можете редактировать свои сообщения
Вы не можете удалять свои сообщения
Вы не можете голосовать в опросах
Вы не можете прикреплять файлы к сообщениям
Вы можете скачивать файлы