Loading...
Error

Скачать Пока фронт в обороне (Юлий Файт) [1964, военный, экранизация, SATRip-AVC] торрент без регистрации

Статистика раздачи
Размер:  1,02 GB   |    Скачан:  31 раз
Сидов:  2  [  0 KB/s  ]  
 
 
 
Автор Сообщение

Marsianka

[] 

Пока фронт в обороне


Страна: СССР
Жанр: военный, экранизация
Год выпуска: 1964
Продолжительность: 01:21:27
Перевод: Не требуется
Режиссер: Юлий Файт
В ролях: Игорь Косухин, Виктор Авдюшко, Светлана Светличная, Владимир Белокуров, Александр Демьяненко, Юрий Соловьёв, Андрей Файт, Геннадий Крашенинников, Александр Анисимов, Георгий Жжёнов, Александр Суснин

Описание: По мотивам рассказов Юрия Нагибина "Бой за высоту" и "Павлик".

Волховский фронт 1942 года. Молодой политрук отдела контрпропаганды штаба дивизии Русанов рвется на передовую.
Вместе с опытным воякой - капитаном Шатерниковым - герой добирается до передовой и ведет со звукопередвижки передачи, обращенные к немецким солдатам.
А в часы затишья проходит по несколько километров ради того, чтобы увидеть Катю, связистку соседнего участка фронта...



Доп: За исходный DVB спасибо Cheef mate

Кодек: х264
Качество: SATRip-AVC
Видео: MPEG-4 AVC, 690х302@736x302, 25 fps, 1600 Кбит/с
Аудио: АС3, 2h, 192 Кбит/с
Субтитры: Нет

x264 [info]: frame I:604 Avg QP:14.95 size: 39046
x264 [info]: frame P:29874 Avg QP:17.43 size: 20283
x264 [info]: frame B:91721 Avg QP:18.00 size: 3796

Общее
Уникальный идентификатор : 199332812914301843842249609185248610667 (0x95F61A73C5F243C985AD15F98833096B)
Полное имя : I:сссрПока фронт в обороне 1964_SATRip-AVC_KORSAR.mkv
Формат : Matroska
Версия формата : Version 2
Размер файла : 1,02 Гбайт
Продолжительность : 1 ч. 21 м.
Общий поток : 1794 Кбит/сек
Дата кодирования : UTC 2018-03-31 16:30:07
Программа кодирования : mkvmerge v5.8.0 ('No Sleep / Pillow') built on Sep 2 2012 15:37:04
Библиотека кодирования : libebml v1.2.3 + libmatroska v1.3.0

Видео
Идентификатор : 1
Формат : AVC
Формат/Информация : Advanced Video Codec
Профиль формата : High@L4.1
Настройки формата : CABAC / 15 Ref Frames
Параметр CABAC формата : Да
Параметр RefFrames формата : 15 кадров
Идентификатор кодека : V_MPEG4/ISO/AVC
Продолжительность : 1 ч. 21 м.
Битрейт : 1600 Кбит/сек
Ширина : 690 пикселей
Высота : 302 пикселя
Соотношение сторон : 2,40:1
Режим частоты кадров : Постоянный
Частота кадров : 25,000 кадров/сек
Цветовое пространство : YUV
Субдискретизация насыщенности : 4:2:0
Битовая глубина : 8 бит
Тип развёртки : Прогрессивная
Бит/(Пиксели*Кадры) : 0.307
Размер потока : 913 Мбайт (87%)
Библиотека кодирования : x264 core 152 r2851kMod ba24899
Настройки программы : cabac=1 / ref=15 / deblock=1:-2:-2 / analyse=0x3:0x133 / me=umh / subme=11 / psy=1 / fade_compensate=0.00 / psy_rd=1.00:0.05 / mixed_ref=1 / me_range=48 / chroma_me=1 / trellis=2 / 8x8dct=1 / cqm=0 / deadzone=21,11 / fast_pskip=0 / chroma_qp_offset=-3 / threads=9 / lookahead_threads=1 / sliced_threads=0 / nr=0 / decimate=0 / interlaced=0 / bluray_compat=0 / constrained_intra=0 / bframes=8 / b_pyramid=2 / b_adapt=2 / b_bias=0 / direct=3 / weightb=1 / open_gop=0 / weightp=2 / keyint=250 / keyint_min=25 / scenecut=40 / intra_refresh=0 / rc_lookahead=40 / rc=2pass / mbtree=0 / bitrate=1600 / ratetol=1.0 / qcomp=0.60 / qpmin=0 / qpmax=39 / qpstep=4 / cplxblur=20.0 / qblur=0.5 / vbv_maxrate=50000 / vbv_bufsize=62500 / nal_hrd=none / filler=0 / ip_ratio=1.15 / pb_ratio=1.30 / aq=1:1.00
Язык : English
Default : Да
Forced : Нет
Цветовой диапазон : Limited
Основные цвета : BT.601 PAL
Характеристики трансфера : BT.470 System B, BT.470 System G
Коэффициенты матрицы : BT.470 System B, BT.470 System G

Аудио
Идентификатор : 2
Формат : AC-3
Формат/Информация : Audio Coding 3
Параметр Endianness формата : Big
Идентификатор кодека : A_AC3
Продолжительность : 1 ч. 21 м.
Вид битрейта : Постоянный
Битрейт : 192 Кбит/сек
Каналы : 2 канала
Расположение каналов : Front: L R
Частота : 48,0 КГц
Частота кадров : 31,250 кадров/сек (1536 SPF)
Битовая глубина : 16 бит
Метод сжатия : С потерями
Задержка видео : 1 мс.
Размер потока : 112 Мбайт (11%)
Язык : Russian
Default : Да
Forced : Нет



Скачать Пока.фронт.в.обороне.(Юлий.Файт).[1964.военный.экранизация.SATRip-AVC].torrent без регистрации
Золото ЗОЛОТАЯ РАЗДАЧА! СКАЧАННОЕ НЕ ЗАСЧИТЫВАЕТСЯ! Золото
Дата: Зарегистрирован   [ Тип: внешний ] Как тут cкачать?
MAGNET ссылка
MAGNET ссылка


Скачать .torrent

11 KB

Статус: проверено DHT
Скачан: торрент - 31 раз, раздача полностью - 0 раз
Размер: 1,02 GB
Оценка:  - (Голосов: 0)
Поблагодарили: 0
Поделиться ссылкой на эту раздачу с друзьями:
В контактеFacebookОдноклассникиTwitterLivejournalМой МирLiveinternet
 

 
Показать сообщения:    


Вы не можете начинать темы
Вы не можете отвечать на сообщения
Вы не можете редактировать свои сообщения
Вы не можете удалять свои сообщения
Вы не можете голосовать в опросах
Вы не можете прикреплять файлы к сообщениям
Вы можете скачивать файлы