Loading...
Error

Скачать Иностранец / The Foreigner (Мартин Кэмпбелл) [2017, Боевик, триллер, драма, BDRip][1080p] [DUB Лицензия] [R.G. GoldenShara] торрент без регистрации

Статистика раздачи
Размер:  4,36 GB   |    Скачан:  110 раз
Сидов:  3  [  0 KB/s  ]  
 
 
 
Автор Сообщение

Magnetto83

[] 


Иностранец / The Foreigner


Год выпуска: 2017
Выпущено: Великобритания, Китай, США | thefyzz, SR Media, Huayi Brothers, STX Entertainment
Жанр: Боевик, триллер, драма
Продолжительность: 01:53:52
Перевод: Профессиональный (полное дублирование) | Blu-ray RUS |
Субтитры: Русские(Полные), Английские (Full+SHD+SHD Colored)
Навигация по главам: Сохранены оригинальные главы как на Blu-ray

Слоган: «Иногда месть — это лучшая справедливость»

Режиссер: Мартин Кэмпбелл

В ролях: Джеки Чан, Пирс Броснан, Майкл МакЭлхаттон, Тао Лю, Чарли Мёрфи, Орла Брэйди, Кэти Льюнг, Рэй Фиарон, Руфус Джонс, Марк Тэнди, Джон Кронин, Каолан Бирн, Донна Бернард, Аарон Монахэн, Ниал МакНэми, Лия Уильямс, Дэвид Пирс, Скотт Спэрроу, Пиппа Беннетт-Уорнер

Описание: Бывший спецагент, ветеран вьетнамской войны Цюань давно сложил оружие и завел мирную жизнь. Но после того, как в теракте прямо на глазах погибает его дочь-подросток, видя, что власти не спешат разыскивать преступников, Цюань сам начинает поиск убийцы. Он пойдет на все, чтобы совершить праведное возмездие…



Возраст: 18+ (зрителям, достигшим 18 лет. запрещено для детей)
Рейтинг MPAA: R (лицам до 17 лет обязательно присутствие взрослого)

Качество: BDRip 1080p
Формат: MKV
Видео кодек: H.264
Аудио кодек: AC3
Видео: 1920x804 (2.40:1), 5041 Кбит/с, 23.976 fps
Аудио: Русский Dolby Digital 5.1 (448 Кбит/с)


x264 [info]: frame I:1298 Avg QP:13.25 size:171432
x264 [info]: frame P:39395 Avg QP:15.93 size: 50938
x264 [info]: frame B:123113 Avg QP:17.55 size: 16776
x264 [info]: consecutive B-frames: 4.0% 4.0% 12.8% 15.8% 16.3% 34.9% 6.6% 2.3% 3.4%
x264 [total]: encoded 163806 frames, 1.92 fps, 5028.66 kb/s



General
Complete name : G:\Видео\Мои Рипы 1080p\Кино-Хиты 2017\Иностранец 2017 Dub Rus BDRip 1080p.mkv
Format : Matroska
Format version : Version 4 / Version 2
File size : 4.36 GiB
Duration : 1h 53mn
Overall bit rate : 5 477 Kbps
Movie name : Иностранец 2017 Dub Rus BDRip 1080p By R.G. GoldenShara
Encoded date : UTC 2018-03-31 14:26:03
Writing application : mkvmerge v7.0.0 ('Where We Going') 64bit built on Jun 9 2014 15:16:27
Writing library : libebml v1.3.0 + libmatroska v1.4.1
Attachements : Cover
DURATION : 01:44:38.353000000
NUMBER_OF_FRAMES : 1391
NUMBER_OF_BYTES : 54533
_STATISTICS_WRITING_APP : mkvmerge v7.0.0 ('Where We Going') 64bit built on Jun 9 2014 15:16:27
_STATISTICS_WRITING_DATE_UTC : 2018-03-31 14:26:03
_STATISTICS_TAGS : BPS DURATION NUMBER_OF_FRAMES NUMBER_OF_BYTES

Video
ID : 1
Format : AVC
Format/Info : Advanced Video Codec
Format profile : High@L4.1
Format settings, CABAC : Yes
Format settings, ReFrames : 5 frames
Codec ID : V_MPEG4/ISO/AVC
Duration : 1h 53mn
Bit rate : 5 041 Kbps
Width : 1 920 pixels
Height : 804 pixels
Display aspect ratio : 2.40:1
Frame rate mode : Constant
Frame rate : 23.976 fps
Color space : YUV
Chroma subsampling : 4:2:0
Bit depth : 8 bits
Scan type : Progressive
Bits/(Pixel*Frame) : 0.136
Stream size : 3.91 GiB (90%)
Title : Иностранец 2017 BDRip 1080p US Transfer - By Magnetto 83
Writing library : x264 core 146 r2538 121396c
Encoding settings : cabac=1 / ref=5 / deblock=1:-2:-2 / analyse=0x3:0x113 / me=umh / subme=10 / psy=1 / psy_rd=1.00:0.00 / mixed_ref=1 / me_range=32 / chroma_me=1 / trellis=2 / 8x8dct=1 / cqm=0 / deadzone=21,11 / fast_pskip=0 / chroma_qp_offset=-2 / threads=3 / lookahead_threads=1 / sliced_threads=0 / nr=0 / decimate=1 / interlaced=0 / bluray_compat=0 / constrained_intra=0 / bframes=8 / b_pyramid=2 / b_adapt=2 / b_bias=0 / direct=3 / weightb=1 / open_gop=0 / weightp=2 / keyint=250 / keyint_min=23 / scenecut=40 / intra_refresh=0 / rc=2pass / mbtree=0 / bitrate=5041 / ratetol=1.0 / qcomp=0.60 / qpmin=0 / qpmax=69 / qpstep=4 / cplxblur=20.0 / qblur=0.5 / ip_ratio=1.40 / pb_ratio=1.30 / aq=2:1.00
Language : English
Default : Yes
Forced : No

Audio
ID : 2
Format : AC-3
Format/Info : Audio Coding 3
Mode extension : CM (complete main)
Format settings, Endianness : Big
Codec ID : A_AC3
Duration : 1h 53mn
Bit rate mode : Constant
Bit rate : 448 Kbps
Channel(s) : 6 channels
Channel positions : Front: L C R, Side: L R, LFE
Sampling rate : 48.0 KHz
Compression mode : Lossy
Stream size : 365 MiB (8%)
Title : DD 5.1 @ 448 kbps - Дубляж | Blu-ray RUS |
Language : Russian
Default : Yes
Forced : No

Text #1
ID : 3
Format : UTF-8
Codec ID : S_TEXT/UTF8
Codec ID/Info : UTF-8 Plain Text
Title : Полные
Language : Russian
Default : No
Forced : No

Text #2
ID : 4
Format : UTF-8
Codec ID : S_TEXT/UTF8
Codec ID/Info : UTF-8 Plain Text
Title : Full
Language : English
Default : No
Forced : No

Text #3
ID : 5
Format : UTF-8
Codec ID : S_TEXT/UTF8
Codec ID/Info : UTF-8 Plain Text
Title : SDH
Language : English
Default : No
Forced : No

Text #4
ID : 6
Format : UTF-8
Codec ID : S_TEXT/UTF8
Codec ID/Info : UTF-8 Plain Text
Title : SDH-Colored
Language : English
Default : No
Forced : No

Menu
00:00:00.000 : :00:00:00.000
00:08:19.541 : :00:08:19.541
00:15:49.574 : :00:15:49.574
00:21:47.765 : :00:21:47.765
00:27:04.164 : :00:27:04.164
00:32:09.511 : :00:32:09.511
00:35:24.164 : :00:35:24.164
00:38:30.934 : :00:38:30.934
00:43:50.169 : :00:43:50.169
00:47:38.189 : :00:47:38.189
00:54:10.497 : :00:54:10.497
01:01:42.324 : :01:01:42.324
01:08:07.333 : :01:08:07.333
01:14:14.033 : :01:14:14.033
01:18:42.927 : :01:18:42.927
01:23:26.877 : :01:23:26.877
01:29:18.812 : :01:29:18.812
01:38:55.012 : :01:38:55.012
01:43:45.928 : :01:43:45.928
01:47:09.298 : :01:47:09.298







Скачать Иностранец.The.Foreigner.(Мартин.Кэмпбелл).[2017.Боевик.триллер.драма.BDRip][1080p].[DUB.Лицензия].[R.G.GoldenShara].torrent без регистрации
Золото ЗОЛОТАЯ РАЗДАЧА! СКАЧАННОЕ НЕ ЗАСЧИТЫВАЕТСЯ! Золото
Дата: Зарегистрирован   [ Тип: внутренний ] Как тут cкачать?
MAGNET ссылка
MAGNET ссылка


Скачать .torrent

11 KB

Статус: проверено
Скачан: торрент - 110 раз, раздача полностью - 70 раз
Размер: 4,36 GB
Оценка:  5 (Голосов: 6)
Поблагодарили: 13
Поделиться ссылкой на эту раздачу с друзьями:
В контактеFacebookОдноклассникиTwitterLivejournalМой МирLiveinternet
 

 

sash397

[] 

/viewtopic.php?t=16137090#
 

Magnetto83

[] 

ab Обновлено! Звук заменён на лицензию с Blu-ray RUS ad
 
Показать сообщения:    


Вы не можете начинать темы
Вы не можете отвечать на сообщения
Вы не можете редактировать свои сообщения
Вы не можете удалять свои сообщения
Вы не можете голосовать в опросах
Вы не можете прикреплять файлы к сообщениям
Вы можете скачивать файлы