Loading...
Error

Скачать Тоня против всех / I, Tonya (Крэйг Гиллеспи) [2017, комедия, драма, биография, спорт, BDRemux] [1080p] [Dub (Лицензия)]+[Eng]+[Sub Rus, Eng] [US Transfer] торрент без регистрации

Статистика раздачи
Размер:  31,57 GB   |    Скачан:  40 раз
Сидов:  1  [  0 KB/s  ]  
 
 
 
Автор Сообщение

МихаНЕзатор

[] 

Информация о фильме
Название: Тоня против всех
Оригинальное название: I, Tonya
Год выхода: 2017
Жанр: комедия, драма, биография, спорт
Режиссер: Крэйг Гиллеспи

В ролях: Марго Робби, Себастьян Стэн, Эллисон Джэнни, Кэйтлин Карвер, Бобби Каннавейл, Маккенна Грэйс, Бояна Новакович, Джулианна Николсон, Катрин Дайер, Пол Уолтер Хаузер



О фильме: Белокурая чемпионка Тоня Хардинг вот-вот подпишет на дело двух идиотов. На нее начнут охоту папарацци и лучшие агенты ФБР. Но это будет потом, а пока за ней с придыханием следит вся страна. Тоня — гордость нации, без пяти минут член олимпийской сборной по фигурному катанию. Надо лишь избавиться от конкурентки. В ее голове зреет дерзкий план.

Страна: США
Студия: Clubhouse Pictures (II)
Продолжительность: 01:59:58
Перевод: Дублированный | Лицензия

Качество: BDRemux 1080p
Видео: MPEG-4 AVC, 1920x1080, 29.8 Mbit/s, 23.976 fps
Звук:
Аудио #01: 48 kHz, DTS-HD MA, 5.1, 3564 Kbps | Дублированный | RUS |
Аудио #02: 48 kHz, AC3, 5.1, 640 Kbps | Дублированный | RUS |
Аудио #03: 48 kHz, DTS-HD MA, 5.1, 3643 Kbps | Оригинал | ENG |
Субтитры: Русские (2xfull), английские
General
Unique ID : 321949953178572168057515428582175808554 (0xF2354E380145E7C12B778CE235F01C2A)
Complete name : C:Video111I,Tonya.2017.Lic.BDREMUX.1080p.ExKinoRay.mkv
Format : Matroska
Format version : Version 4 / Version 2
File size : 31.6 GiB
Duration : 1 h 59 min
Overall bit rate mode : Variable
Overall bit rate : 37.7 Mb/s
Movie name : I, Tonya 2017 from ExKinoRay
Encoded date : UTC 2018-04-02 00:41:40
Writing application : mkvmerge v21.0.0 ('Tardigrades Will Inherit The Earth') 64-bit
Writing library : libebml v1.3.5 + libmatroska v1.4.8

Video
ID : 1
Format : AVC
Format/Info : Advanced Video Codec
Format profile : High@L4.1
Format settings : CABAC / 4 Ref Frames
Format settings, CABAC : Yes
Format settings, ReFrames : 4 frames
Codec ID : V_MPEG4/ISO/AVC
Duration : 1 h 59 min
Bit rate mode : Variable
Bit rate : 29.8 Mb/s
Maximum bit rate : 36.5 Mb/s
Width : 1 920 pixels
Height : 1 080 pixels
Display aspect ratio : 16:9
Frame rate mode : Constant
Frame rate : 23.976 (24000/1001) FPS
Color space : YUV
Chroma subsampling : 4:2:0
Bit depth : 8 bits
Scan type : Progressive
Bits/(Pixel*Frame) : 0.600
Stream size : 25.0 GiB (79%)
Language : English
Default : Yes
Forced : No

Audio #1
ID : 2
Format : DTS
Format/Info : Digital Theater Systems
Format profile : MA / Core
Codec ID : A_DTS
Duration : 1 h 59 min
Bit rate mode : Variable / Constant
Bit rate : 3 564 kb/s / 1 509 kb/s
Channel(s) : 6 channels
Channel positions : Front: L C R, Side: L R, LFE
Sampling rate : 48.0 kHz
Frame rate : 93.750 FPS (512 SPF)
Bit depth : 24 bits
Compression mode : Lossless / Lossy
Stream size : 2.98 GiB (9%)
Title : Dub [License]
Language : Russian
Default : Yes
Forced : Yes

Audio #2
ID : 3
Format : AC-3
Format/Info : Audio Coding 3
Codec ID : A_AC3
Duration : 1 h 59 min
Bit rate mode : Constant
Bit rate : 640 kb/s
Channel(s) : 6 channels
Channel positions : Front: L C R, Side: L R, LFE
Sampling rate : 48.0 kHz
Frame rate : 31.250 FPS (1536 SPF)
Bit depth : 16 bits
Compression mode : Lossy
Stream size : 549 MiB (2%)
Title : Dub [License]
Language : Russian
Service kind : Complete Main
Default : No
Forced : No

Audio #3
ID : 4
Format : DTS
Format/Info : Digital Theater Systems
Format profile : MA / Core
Codec ID : A_DTS
Duration : 1 h 59 min
Bit rate mode : Variable / Constant
Bit rate : 3 643 kb/s / 1 509 kb/s
Channel(s) : 6 channels
Channel positions : Front: L C R, Side: L R, LFE
Sampling rate : 48.0 kHz
Frame rate : 93.750 FPS (512 SPF)
Bit depth : 24 bits
Compression mode : Lossless / Lossy
Stream size : 3.05 GiB (10%)
Title : Original
Language : English
Default : No
Forced : No

Text #1
ID : 5
Format : UTF-8
Codec ID : S_TEXT/UTF8
Codec ID/Info : UTF-8 Plain Text
Duration : 1 h 58 min
Bit rate : 101 b/s
Count of elements : 1279
Stream size : 88.4 KiB (0%)
Title : Full
Language : Russian
Default : No
Forced : No

Text #2
ID : 6
Format : UTF-8
Codec ID : S_TEXT/UTF8
Codec ID/Info : UTF-8 Plain Text
Duration : 1 h 50 min
Bit rate : 108 b/s
Count of elements : 1266
Stream size : 87.7 KiB (0%)
Title : full (no cens.)
Language : Russian
Default : No
Forced : No

Text #3
ID : 7
Format : UTF-8
Codec ID : S_TEXT/UTF8
Codec ID/Info : UTF-8 Plain Text
Duration : 1 h 58 min
Bit rate : 61 b/s
Count of elements : 1779
Stream size : 53.2 KiB (0%)
Title : full
Language : English
Default : No
Forced : No

Text #4
ID : 8
Format : UTF-8
Codec ID : S_TEXT/UTF8
Codec ID/Info : UTF-8 Plain Text
Duration : 1 h 56 min
Bit rate : 83 b/s
Count of elements : 1909
Stream size : 71.1 KiB (0%)
Title : SDH
Language : English
Default : No
Forced : No

Text #5
ID : 9
Format : UTF-8
Codec ID : S_TEXT/UTF8
Codec ID/Info : UTF-8 Plain Text
Duration : 1 h 56 min
Bit rate : 142 b/s
Count of elements : 1909
Stream size : 121 KiB (0%)
Title : Colored
Language : English
Default : No
Forced : No

Menu
00:00:00.000 : en:00:00:00.000
00:18:16.804 : en:00:18:16.804
00:36:27.685 : en:00:36:27.685
00:55:08.514 : en:00:55:08.514
01:11:49.597 : en:01:11:49.597
01:24:35.153 : en:01:24:35.153
01:36:46.968 : en:01:36:46.968
01:52:34.289 : en:01:52:34.289



Скачать Тоня.против.всех.I.Tonya.(Крэйг.Гиллеспи).[2017.комедия.драма.биография.спорт.BDRemux].[1080p].[Dub.(Лицензия)]+[Eng]+[Sub.Rus.Eng].[US.Transfer].torrent без регистрации
Золото ЗОЛОТАЯ РАЗДАЧА! СКАЧАННОЕ НЕ ЗАСЧИТЫВАЕТСЯ! Золото
Дата: Зарегистрирован   [ Тип: внутренний ] Как тут cкачать?
MAGNET ссылка
MAGNET ссылка


Скачать .torrent

159 KB

Статус: проверено DHT
Скачан: торрент - 40 раз, раздача полностью - 13 раз
Размер: 31,57 GB
Оценка:  4 (Голосов: 1)
Поблагодарили: 3
Поделиться ссылкой на эту раздачу с друзьями:
В контактеFacebookОдноклассникиTwitterLivejournalМой МирLiveinternet
 

 
Показать сообщения:    


Вы не можете начинать темы
Вы не можете отвечать на сообщения
Вы не можете редактировать свои сообщения
Вы не можете удалять свои сообщения
Вы не можете голосовать в опросах
Вы не можете прикреплять файлы к сообщениям
Вы можете скачивать файлы