Loading...
Error

Скачать Край / Kuang shou (Джонатан Ли) [2017, боевик, криминал, HDRip] [1080p] [MVO (GreenРай Studio)] торрент без регистрации

Статистика раздачи
Размер:  7,27 GB   |    Скачан:  42 раза
Сидов:  1  [  0 KB/s  ]  
 
 
 
Автор Сообщение

МихаНЕзатор

[] 

Информация о фильме
Год выхода: 2017
Наименование: Край
Оригинальное наименование: Kuang shou
Произведено: Гонконг
Жанр: боевик, криминал
Режиссер постановщик: Джонатан Ли

В главных ролях: Макс Чжан, Шон Юе, Гордон Лам, Дженис Мань, Сесилия Со, Ка Нин Чунг, Дерек Цан, У Юэ

О фильме: При задержании наркоторговцев полицейский Си Гоу убивает одного из них и через полгода выходит из-под стражи за недостаточностью улик. Он продолжает работать в полиции, и натыкается на группировку контрабандистов наркотиков и золота. А там произошли разборки - глава банды хочет уйти на пенсию и оставить бизнес родному сыну, а не приёмному, но тот убивает наследника.



Внимание, имеется видео и аудио реклама от спонсора показа

Файл
Качество: HDRip 1080p
Видео данные: MKV, 1920x816 (2:35:1), 24.000 fps, 10000 Кбит/с
Аудио данные: AC3, 2 ch, 640 Кбит/с
Перевод: Любительский многоголосый (GreenРай Studio)
Продолжительность: 01:39:47
General
Unique ID : 236065365719535568869860173661659045114 (0xB19889217C47EEBA9E821932C4C99CFA)
Complete name : E:ГРИНРАЙThe.Brink.2017.P.BDRip.1080p.mkv
Format : Matroska
Format version : Version 4 / Version 2
File size : 7.27 GiB
Duration : 1 h 39 min
Overall bit rate mode : Constant
Overall bit rate : 10.4 Mb/s
Encoded date : UTC 2018-03-30 12:09:46
Writing application : mkvmerge v6.5.0 ('Isn't she lovely') built on Oct 20 2013 12:50:05
Writing library : libebml v1.3.0 + libmatroska v1.4.1

Video
ID : 1
Format : AVC
Format/Info : Advanced Video Codec
Format profile : Main@L4
Format settings : CABAC / 3 Ref Frames
Format settings, CABAC : Yes
Format settings, RefFrames : 3 frames
Format settings, GOP : M=4, N=15
Codec ID : V_MPEG4/ISO/AVC
Duration : 1 h 39 min
Bit rate mode : Constant
Bit rate : 10 000 kb/s
Width : 1 920 pixels
Height : 816 pixels
Display aspect ratio : 2.35:1
Frame rate mode : Constant
Frame rate : 24.000 FPS
Standard : NTSC
Color space : YUV
Chroma subsampling : 4:2:0
Bit depth : 8 bits
Scan type : Progressive
Bits/(Pixel*Frame) : 0.266
Stream size : 6.68 GiB (92%)
Language : English
Default : Yes
Forced : No
Color range : Limited

Audio
ID : 2
Format : AC-3
Format/Info : Audio Coding 3
Codec ID : A_AC3
Duration : 1 h 39 min
Bit rate mode : Constant
Bit rate : 640 kb/s
Channel(s) : 2 channels
Channel positions : Front: L R
Sampling rate : 48.0 kHz
Frame rate : 31.250 FPS (1536 SPF)
Bit depth : 16 bits
Compression mode : Lossy
Stream size : 457 MiB (6%)
Service kind : Complete Main
Default : Yes
Forced : No



Скачать Край.Kuang.shou.(Джонатан.Ли).[2017.боевик.криминал.HDRip].[1080p].[MVO.(GreenРай.Studio)].torrent без регистрации
Золото ЗОЛОТАЯ РАЗДАЧА! СКАЧАННОЕ НЕ ЗАСЧИТЫВАЕТСЯ! Золото
Дата: Зарегистрирован   [ Тип: внутренний ] Как тут cкачать?
MAGNET ссылка
MAGNET ссылка


Скачать .torrent

19 KB

Статус: проверено DHT
Скачан: торрент - 42 раз, раздача полностью - 11 раз
Размер: 7,27 GB
Оценка:  - (Голосов: 0)
Поблагодарили: 3
Поделиться ссылкой на эту раздачу с друзьями:
В контактеFacebookОдноклассникиTwitterLivejournalМой МирLiveinternet
 

 
Показать сообщения:    


Вы не можете начинать темы
Вы не можете отвечать на сообщения
Вы не можете редактировать свои сообщения
Вы не можете удалять свои сообщения
Вы не можете голосовать в опросах
Вы не можете прикреплять файлы к сообщениям
Вы можете скачивать файлы