Loading...
Error

Скачать Погружение / Submergence (Вим Вендерс) [2017, триллер, драма, мелодрама, WEB-DL] [1080p] [DUB] [iTunes] торрент без регистрации

Статистика раздачи
Размер:  4,15 GB   |    Скачан:  400 раз
Сидов:  1  [  0 KB/s  ]  
 
 
 
Автор Сообщение

leon030982

[] 

Погружение / Submergence

Год выпуска: 2017
Страна: Германия, Франция, Испания, США
Жанр: триллер, драма, мелодрама
Продолжительность: 01:46:43
Перевод: Дубляж [iTunes]
Субтитры: отсутствуют

Режиссер: Вим Вендерс

В ролях:

Джеймс МакЭвой, Алисия Викандер, Александр Сиддиг, Селин Джонс, Реда Катеб, Мохамед Хакимшади, Клементин Баэрт, Адама Барри, Жюльен Буаниш, Лоик Корбери

Описание:
Он - офицер разведки, она - ученый-океанолог. Ему предстояла смертельно опасная спецоперация в Сомали, ей - глубоководная экспедиция. И теперь, в минуту испытаний пред лицом смерти - в плену у боевиков, в батискафе на глубине океана - все, что у них есть, - это их любовь...


Качество: WEB-DL 1080p
Формат: MKV
Видео: MPEG-4 AVC, 1920x1038, 5158 Kbit/s, 25.000 fps
Аудио: AC3, 48 kHz, 6 ch, ~384.00 kbps avg

Торент обновлен!
General
Unique ID : 215841235200602015948304017472827649428 (0xA2618282F32C1842836CFCDC65176D94)
Complete name : C:Video111Submergence.2017.WEB-DL.1080p.ExKinoRay.mkv
Format : Matroska
Format version : Version 4 / Version 2
File size : 4.15 GiB
Duration : 1 h 46 min
Overall bit rate : 5 569 kb/s
Movie name : Submergence 2017 from ExKinoRay
Encoded date : UTC 2018-04-12 18:50:42
Writing application : mkvmerge v22.0.0 ('At The End Of The World') 64-bit
Writing library : libebml v1.3.5 + libmatroska v1.4.8

Video
ID : 1
Format : AVC
Format/Info : Advanced Video Codec
Format profile : High@L4
Format settings : CABAC / 4 Ref Frames
Format settings, CABAC : Yes
Format settings, ReFrames : 4 frames
Codec ID : V_MPEG4/ISO/AVC
Duration : 1 h 46 min
Bit rate : 5 183 kb/s
Width : 1 920 pixels
Height : 1 038 pixels
Display aspect ratio : 1.85:1
Frame rate mode : Constant
Frame rate : 25.000 FPS
Color space : YUV
Chroma subsampling : 4:2:0
Bit depth : 8 bits
Scan type : Progressive
Bits/(Pixel*Frame) : 0.104
Stream size : 3.86 GiB (93%)
Language : English
Default : Yes
Forced : No
Color range : Limited
Color primaries : BT.709
Transfer characteristics : BT.709
Matrix coefficients : BT.709

Audio
ID : 2
Format : AC-3
Format/Info : Audio Coding 3
Codec ID : A_AC3
Duration : 1 h 46 min
Bit rate mode : Constant
Bit rate : 384 kb/s
Channel(s) : 6 channels
Channel positions : Front: L C R, Side: L R, LFE
Sampling rate : 48.0 kHz
Frame rate : 31.250 FPS (1536 SPF)
Bit depth : 16 bits
Compression mode : Lossy
Stream size : 293 MiB (7%)
Title : iTunes
Language : Russian
Service kind : Complete Main
Default : Yes
Forced : Yes

Menu
00:00:00.000 : en:Глава 1
00:05:51.400 : en:Глава 2
00:13:00.240 : en:Глава 3
00:18:05.920 : en:Глава 4
00:25:05.519 : en:Глава 5
00:30:35.679 : en:Глава 6
00:37:59.478 : en:Глава 7
00:45:36.597 : en:Глава 8
00:53:04.517 : en:Глава 9
00:57:17.156 : en:Глава 10
01:03:15.636 : en:Глава 11
01:10:00.116 : en:Глава 12
01:16:19.756 : en:Глава 13
01:22:11.556 : en:Глава 14
01:28:08.436 : en:Глава 15
01:32:53.356 : en:Глава 16
01:39:04.156 : en:Глава 17



Скачать Погружение.Submergence.(Вим.Вендерс).[2017.триллер.драма.мелодрама.WEB-DL].[1080p].[DUB].[iTunes].torrent без регистрации
Золото ЗОЛОТАЯ РАЗДАЧА! СКАЧАННОЕ НЕ ЗАСЧИТЫВАЕТСЯ! Золото
Дата: Зарегистрирован   [ Тип: внутренний ] Как тут cкачать?
MAGNET ссылка
MAGNET ссылка


Скачать .torrent

22 KB

Статус: проверено DHT
Скачан: торрент - 400 раз, раздача полностью - 323 раз
Размер: 4,15 GB
Оценка:  4,7 (Голосов: 3)
Поблагодарили: 16
Поделиться ссылкой на эту раздачу с друзьями:
В контактеFacebookОдноклассникиTwitterLivejournalМой МирLiveinternet
 

 
Показать сообщения:    


Вы не можете начинать темы
Вы не можете отвечать на сообщения
Вы не можете редактировать свои сообщения
Вы не можете удалять свои сообщения
Вы не можете голосовать в опросах
Вы не можете прикреплять файлы к сообщениям
Вы можете скачивать файлы