Loading...
Error

Скачать Подмена (Кара небесная) / Switch (Блейк Эдвардс) [1991, фэнтези, комедия, WEBRip] [1080p] [Dub ('Ленфильм')] + [AVO (Алексей Михалёв)] [R.G. Goldenshara] торрент без регистрации

Статистика раздачи
Размер:  4,37 GB   |    Скачан:  56 раз
Сидов:  4  [  0 KB/s  ]  
 
 
 
Автор Сообщение

sobmaster

[] 



Подмена (Кара небесная)
Switch




Год выпуска: 1991
Страна: США
Выпущено: Beco Films, Cinema Plus, Home Box Office (HBO)
Слоган: «Steve and Walter used to have a preference for blondes. Then Steve was murdered... and came back as one. Will being a woman make him a better man?»
Жанр: фэнтези, комедия

Продолжительность: 01:43:23
Перевод #1: Профессиональный (полное дублирование) ('Ленфильм')
Перевод #2: Авторский (одноголосый, закадровый) (Алексей Михалёв)
Режиссер: Блейк Эдвардс
Сценарий: Блейк Эдвардс
Продюсер: Тони Адамс, Триш Кароселли, Арнон Милчен
Оператор: Дик Буш
Композитор: Генри Манчини
Художник: Роджер Маус, Сэнди Гетцлер, Эллен Миройник
Монтаж: Роберт Пергеймент
В ролях:


Эллен Баркин (Amanda Brooks), Джимми Смитс (Walter Stone), ДжоБет Уильямс (Margo Brofman), Лоррейн Бракко (Sheila Faxton), Тони Робертс (Arnold Freidkin), Перри Кинг (Steve Brooks), Брюс Пэйн (The Devil), Лизетт Энтони (Liz), Виктория Махони (Felicia), Бэзил Хоффман (Higgins), Кэтрин Кинер (Steve's Secretary), Кевин Килнер (Dan Jones), Дэвид Уол (Attorney Caldwell), Джеймс Харпер (Lt. Laster), Джон Лафайетт (Sgt. Phillips)
Роли дублировали: Лариса Луппиан (Amanda Brooks), Вадим Гущин (Walter Stone), Владимир Летенков (Arnold Freidkin; The Devil), Вадим Яковлев, Елена Павловская, Сергей Паршин, Татьяна Иванова
Сборы в США: $15 545 943
Зрители: США 3.69 млн
Мировая премьера: 10 мая 1991
Премьера (РФ): 9 августа 1994, «Гемини»
MPAA: - Лицам до 17 лет обязательно присутствие взрослого

Описание: Стив Брукс, сердцеед и соблазнитель женщин, отправляясь на очередную вечеринку, не знал, что погибнет от рук своих любимиц и на следующий день превратится в эффектную блондинку. Теперь, чтобы не попасть в ад, он должен понравиться хотя бы одному человеку…


Качество: WEBRip 1080p
Контейнер: MKV
Видео: AVC, 1920x1080 (16:9), 5669 kbps, 23.976 fps, 0.114 bpp
Аудио #1: русский /; AC3 /; 2.0 /; 48 kHz /; 192 kbps /; 16 bit; || DUB ('Ленфильм')
Аудио #2: русский /; AC3 /; 2.0 /; 48 kHz /; 192 kbps /; 16 bit; || AVO (Алексей Михалёв)
Субтитры #1: русские
Субтитры #2: английские
Субтитры #3: английские (SDH)

АНОНСЫ ПОПУЛЯРНЫХ РАЗДАЧ

Код:


General
Unique ID                                : 213234947318277982274906589870825155506 (0xA06B8E990F5DC46C87B0ADC26F482BB2)
Complete name                            : E:\Мои рипы\Кара небесная.1991.BDRip.1080p.DUB+AVO.mkv
Format                                   : Matroska
Format version                           : Version 4 / Version 2
File size                                : 4.37 GiB
Duration                                 : 1h 43mn
Overall bit rate                         : 6 054 Kbps
Movie name                               : Switch (1991)
Encoded date                             : UTC 2018-03-17 15:16:52
Writing application                      : mkvmerge v6.8.0 ('Theme for Great Cities') 64bit built on Mar  2 2014 21:34:26
Writing library                          : libebml v1.3.0 + libmatroska v1.4.1

Video
ID                                       : 1
Format                                   : AVC
Format/Info                              : Advanced Video Codec
Format profile                           : High@L4.1
Format settings, CABAC                   : Yes
Format settings, ReFrames                : 4 frames
Codec ID                                 : V_MPEG4/ISO/AVC
Duration                                 : 1h 43mn
Bit rate                                 : 5 669 Kbps
Width                                    : 1 920 pixels
Height                                   : 1 080 pixels
Display aspect ratio                     : 16:9
Frame rate mode                          : Constant
Frame rate                               : 23.976 fps
Color space                              : YUV
Chroma subsampling                       : 4:2:0
Bit depth                                : 8 bits
Scan type                                : Progressive
Bits/(Pixel*Frame)                       : 0.114
Stream size                              : 4.01 GiB (92%)
Writing library                          : x264 core 146 r2538 121396c
Encoding settings                        : cabac=1 / ref=4 / deblock=1:-3:-3 / analyse=0x3:0x113 / me=umh / subme=11 / psy=1 / psy_rd=1.00:0.15 / mixed_ref=1 / me_range=48 / chroma_me=1 / trellis=2 / 8x8dct=1 / cqm=0 / deadzone=21,11 / fast_pskip=0 / chroma_qp_offset=-4 / threads=6 / lookahead_threads=1 / sliced_threads=0 / nr=0 / decimate=0 / interlaced=0 / bluray_compat=0 / constrained_intra=0 / bframes=8 / b_pyramid=2 / b_adapt=2 / b_bias=0 / direct=2 / weightb=1 / open_gop=0 / weightp=2 / keyint=250 / keyint_min=23 / scenecut=40 / intra_refresh=0 / rc_lookahead=50 / rc=2pass / mbtree=0 / bitrate=5669 / ratetol=1.0 / qcomp=0.60 / qpmin=0 / qpmax=69 / qpstep=4 / cplxblur=20.0 / qblur=0.5 / vbv_maxrate=14000 / vbv_bufsize=14000 / nal_hrd=none / filler=0 / ip_ratio=1.40 / pb_ratio=1.30 / aq=2:1.00
Language                                 : English
Default                                  : Yes
Forced                                   : No
Color primaries                          : Generic film
Matrix coefficients                      : YCgCo

Audio #1
ID                                       : 2
Format                                   : AC-3
Format/Info                              : Audio Coding 3
Mode extension                           : CM (complete main)
Format settings, Endianness              : Big
Codec ID                                 : A_AC3
Duration                                 : 1h 43mn
Bit rate mode                            : Constant
Bit rate                                 : 192 Kbps
Channel(s)                               : 2 channels
Channel positions                        : Front: L R
Sampling rate                            : 48.0 KHz
Bit depth                                : 16 bits
Compression mode                         : Lossy
Delay relative to video                  : 15s 0ms
Stream size                              : 142 MiB (3%)
Title                                    : AC3, 2 ch, 192 Kbps, Dub, 'Ленфильм'
Language                                 : Russian
Default                                  : Yes
Forced                                   : No

Audio #2
ID                                       : 3
Format                                   : AC-3
Format/Info                              : Audio Coding 3
Mode extension                           : CM (complete main)
Format settings, Endianness              : Big
Codec ID                                 : A_AC3
Duration                                 : 1h 43mn
Bit rate mode                            : Constant
Bit rate                                 : 192 Kbps
Channel(s)                               : 2 channels
Channel positions                        : Front: L R
Sampling rate                            : 48.0 KHz
Bit depth                                : 16 bits
Compression mode                         : Lossy
Delay relative to video                  : 15s 0ms
Stream size                              : 142 MiB (3%)
Title                                    : AC3, 2 ch, 192 Kbps, Алексей Михалёв
Language                                 : Russian
Default                                  : No
Forced                                   : No

Text #1
ID                                       : 4
Format                                   : UTF-8
Codec ID                                 : S_TEXT/UTF8
Codec ID/Info                            : UTF-8 Plain Text
Language                                 : Russian
Default                                  : No
Forced                                   : No

Text #2
ID                                       : 5
Format                                   : UTF-8
Codec ID                                 : S_TEXT/UTF8
Codec ID/Info                            : UTF-8 Plain Text
Language                                 : English
Default                                  : No
Forced                                   : No

Text #3
ID                                       : 6
Format                                   : UTF-8
Codec ID                                 : S_TEXT/UTF8
Codec ID/Info                            : UTF-8 Plain Text
Title                                    : SDH
Language                                 : English
Default                                  : No
Forced                                   : No


Раздаю ночью с 0.00 до 7.00 до 5 скачавших. На раздачи не возвращаюсь.





Скачать Подмена.(Кара.небесная).Switch.(Блейк.Эдвардс).[1991.фэнтези.комедия.WEBRip].[1080p].[Dub.('Ленфильм')].+.[AVO.(Алексей.Михалёв)].[R.G.Goldenshara].torrent без регистрации
Золото ЗОЛОТАЯ РАЗДАЧА! СКАЧАННОЕ НЕ ЗАСЧИТЫВАЕТСЯ! Золото
Дата: Зарегистрирован   [ Тип: внешний ] Как тут cкачать?
MAGNET ссылка
MAGNET ссылка


Скачать .torrent

12 KB

Статус: проверено DHT
Скачан: торрент - 56 раз, раздача полностью - 66 раз
Размер: 4,37 GB
Оценка:  5 (Голосов: 3)
Поблагодарили: 10
Поделиться ссылкой на эту раздачу с друзьями:
В контактеFacebookОдноклассникиTwitterLivejournalМой МирLiveinternet
 

 

Wolend

[] 

sobmaster, Здарово дружище! az
Смотрю, ты всё ещё здесь ab
Я вот совсем пропал...Но воспоминания всё равно меня гонят сюда иногда ag
Что нового вообще? Как сам?

Извините за оффтоп ae
 

sobmaster

[] 

Привет, мой старый друг Wolend!
Да, я по-прежнему здесь, корплю потихоньку... ag
Новостей особых нет, слава богу, ничего плохого за это время не произошло и это уже радует...
Освоил Юзнет и теперь таскаю оттуда всякие эксклюзивчики... ab Например исходник для этой раздачи взял там. af
Ну, а сам жив и здоров, живу тихо и спокойно... На днях бахнуло 53, так что задача одна - достойно встретить старость! ag
 

Wolend

[] 

sobmaster, Ну я рад за тебя!
53...ух...а я думал что я уже старый)) 32 Будет в июне ah
Давай, делай эксРипы...у тебя отлично получается! ay
Желаю Здоровья тебе и всей твоей семье! Это самое главное!
az
 
Показать сообщения:    


Вы не можете начинать темы
Вы не можете отвечать на сообщения
Вы не можете редактировать свои сообщения
Вы не можете удалять свои сообщения
Вы не можете голосовать в опросах
Вы не можете прикреплять файлы к сообщениям
Вы можете скачивать файлы