Loading...
Error

Скачать Мой друг Дамер / My Friend Dahmer (Марк Мейерс) [2017, ужасы, драма, биография, HDRip] [1080p] [MVO (GreenРай Studio)] торрент без регистрации

Статистика раздачи
Размер:  6,56 GB   |    Скачан:  59 раз
Сидов:  1  [  0 KB/s  ]  
 
 
 
Автор Сообщение

МихаНЕзатор

[] 

Информация о фильме
Год выхода: 2017
Наименование: Мой друг Дамер
Оригинальное наименование: My Friend Dahmer
Произведено: США
Жанр: ужасы, драма, биография
Режиссер постановщик: Марк Мейерс

В главных ролях: Росс Линч, Захари Дэвис Браун, Винсент Картайзер, Алекс Вулф, Адам Кролофф, Энн Хеч, Даллас Робертс

О фильме: Старшеклассник Джеффри Дамер страдает от надвигающего развода родителей, отсутствия друзей и внимания. И в самом деле, кто захочет дружить со странным юношей, который подбирает на дороге мёртвых животных, растворяет их в кислоте и смотрит, что там у них внутри. Но однажды Джеффри решается на отчаянный шаг - привлечь внимание глупой выходкой в школе. К его удивлению это срабатывает, и теперь у парня есть друзья.

Релиз от:

Внимание, имеется видео и аудио реклама от спонсора показа

Файл
Качество: HDRip 1080p
Видео данные: MKV, 1920x810 (2:40:1), 23.976 fps, 8590 Кбит/с
Аудио данные: AAC, 2 ch, 125 Кбит/с
Перевод: Любительский многоголосый (GreenРай Studio)
Продолжительность: 01:47:40
General
Unique ID : 3880994997513746289187561925632425385 (0x2EB73D3A15EA8224FF8AA7E3DD97DA9)
Complete name : E:ГРИНРАЙMy.Friend.Dahmer.2017.P.BDRip.1080p.mkv
Format : Matroska
Format version : Version 4 / Version 2
File size : 6.56 GiB
Duration : 1 h 47 min
Overall bit rate : 8 718 kb/s
Encoded date : UTC 2018-03-29 14:22:58
Writing application : mkvmerge v21.0.0 ('Tardigrades Will Inherit The Earth') 64-bit
Writing library : libebml v1.3.5 + libmatroska v1.4.8

Video
ID : 1
Format : AVC
Format/Info : Advanced Video Codec
Format profile : High@L4
Format settings : CABAC / 1 Ref Frames
Format settings, CABAC : Yes
Format settings, RefFrames : 1 frame
Format settings, GOP : M=1, N=30
Codec ID : V_MPEG4/ISO/AVC
Duration : 1 h 47 min
Bit rate : 8 590 kb/s
Width : 1 920 pixels
Height : 810 pixels
Display aspect ratio : 2.40:1
Frame rate mode : Constant
Frame rate : 23.976 (24000/1001) FPS
Color space : YUV
Chroma subsampling : 4:2:0
Bit depth : 8 bits
Scan type : Progressive
Bits/(Pixel*Frame) : 0.230
Stream size : 6.46 GiB (99%)
Language : English
Default : Yes
Forced : No

Audio
ID : 2
Format : AAC
Format/Info : Advanced Audio Codec
Format profile : LC
Codec ID : A_AAC-2
Duration : 1 h 47 min
Bit rate : 125 kb/s
Channel(s) : 2 channels
Channel positions : Front: L R
Sampling rate : 48.0 kHz
Frame rate : 46.875 FPS (1024 SPF)
Compression mode : Lossy
Stream size : 96.6 MiB (1%)
Language : English
Default : Yes
Forced : No



Скачать Мой.друг.Дамер.My.Friend.Dahmer.(Марк.Мейерс).[2017.ужасы.драма.биография.HDRip].[1080p].[MVO.(GreenРай.Studio)].torrent без регистрации
Золото ЗОЛОТАЯ РАЗДАЧА! СКАЧАННОЕ НЕ ЗАСЧИТЫВАЕТСЯ! Золото
Дата: Зарегистрирован   [ Тип: внутренний ] Как тут cкачать?
MAGNET ссылка
MAGNET ссылка


Скачать .torrent

17 KB

Статус: проверено DHT
Скачан: торрент - 59 раз, раздача полностью - 16 раз
Размер: 6,56 GB
Оценка:  - (Голосов: 0)
Поблагодарили: 2
Поделиться ссылкой на эту раздачу с друзьями:
В контактеFacebookОдноклассникиTwitterLivejournalМой МирLiveinternet
 

 

chelenberg

[] 

Ужжжасно страшный фильм!!!! Просто загоняет на стену!!!!
 
Показать сообщения:    


Вы не можете начинать темы
Вы не можете отвечать на сообщения
Вы не можете редактировать свои сообщения
Вы не можете удалять свои сообщения
Вы не можете голосовать в опросах
Вы не можете прикреплять файлы к сообщениям
Вы можете скачивать файлы