Loading...
Error

Скачать Книга жизни / The Book of Life (Хорхе Р. Гутьеррес / Jorge R. Gutierrez) [2014, Мультфильм, фэнтези, мелодрама, комедия, приключения, семейный, BDRip][1080p][DUB][R.G. GoldenShara] торрент без регистрации

Статистика раздачи
Размер:  4,37 GB   |    Скачан:  119 раз

Полного источника не было: 5 дней

 
 
 
Автор Сообщение

Magnetto83

[] 


Книга жизни / The Book of Life


Год выпуска: 2014
Выпущено: США (Twentieth Century Fox, Reel FX Creative Studios, Chatrone)
Жанр: Мультфильм, фэнтези, мелодрама, комедия, приключения, семейный
Продолжительность: 01:35:27
Перевод: Профессиональный (полное дублирование)
Субтитры: Русские (полные + форс.), украинские, английские (Forced + Full + SDH + SDH-Colored)
Навигация по главам: Есть

Режиссер: Хорхе Р. Гутьеррес / Jorge R. Gutierrez

В оригинале роли озвучивали: Диего Луна, Зои Салдана, Ченнинг Татум, Рон Перлман, Кристина Эпплгейт, Айс Кьюб, Кейт дель Кастильо, Гектор Элизондо, Дэнни Трехо, Карлос Аласраки

Описание: В мультфильме описывается романтическая история любви на фоне празднования Дня мертвых в Мексике. Духи Ла Муэрте и Шибальба посещают городок Сан Анхель в День Мёртвых, где они заключают пари после того как встречают пару мальчишек, Маноло и Хоакина, которые хотят завоевать сердце Марии.



Возраст: 6+

Рецензия с www.kinopoisk.ru: "Неожиданно бодрый и не совсем привычный даже для нашего циничного времени мультфильм о вечных ценностях — дружбе, преданности, смелости, которым и смерть не преграда."

Качество: BDRip 1080p
Формат: MKV
Видео кодек: H.264
Аудио кодек: AC3
Видео: 1920x802 (2.40:1), 5212 kbps, 23.976 fps
Аудио: Русский, Украинский, Английский 6 ch, 448 Кбит/с Лицензия [Blu-Ray CEE]


x264 [info]: frame I:1668 Avg QP:18.83 size:163446
x264 [info]: frame P:40207 Avg QP:19.97 size: 49326
x264 [info]: frame B:95442 Avg QP:21.90 size: 14890
x264 [info]: consecutive B-frames: 5.9% 5.0% 23.6% 35.3% 14.9% 12.7% 1.4% 0.5% 0.7%
x264 [total]: encoded 137317 frames, 0.80 fps, 5208.38 kb/s



General
Complete name : С:\Для Конвертации Видео\Книга Жизни 2014 DUB RUS UKR ENG BDRip 1080р.mkv
Format : Matroska
Format version : Version 2
File size : 4.37 GiB
Duration : 1h 35mn
Overall bit rate : 6 555 Kbps
Movie name : Книга Жизни 2014 DUB RUS UKR ENG BDRip 1080р By Magnetto 83
Encoded date : UTC 2016-02-04 08:28:25
Writing application : mkvmerge v5.2.0 ('I can't explain') built on Dec 18 2011 18:12:03
Writing library : libebml v1.2.3 + libmatroska v1.3.0

Video
ID : 1
Format : AVC
Format/Info : Advanced Video Codec
Format profile : High@L4.1
Format settings, CABAC : Yes
Format settings, ReFrames : 5 frames
Codec ID : V_MPEG4/ISO/AVC
Duration : 1h 35mn
Bit rate : 5 212 Kbps
Width : 1 920 pixels
Height : 802 pixels
Display aspect ratio : 2.40:1
Frame rate mode : Constant
Frame rate : 23.976 fps
Color space : YUV
Chroma subsampling : 4:2:0
Bit depth : 8 bits
Scan type : Progressive
Bits/(Pixel*Frame) : 0.141
Stream size : 3.39 GiB (78%)
Title : Книга Жизни 2014 1080р
Writing library : x264 core 146 r2538 121396c
Encoding settings : cabac=1 / ref=5 / deblock=1:-3:-3 / analyse=0x3:0x113 / me=umh / subme=11 / psy=1 / psy_rd=1.00:0.00 / mixed_ref=1 / me_range=32 / chroma_me=1 / trellis=2 / 8x8dct=1 / cqm=0 / deadzone=21,11 / fast_pskip=0 / chroma_qp_offset=-2 / threads=3 / lookahead_threads=1 / sliced_threads=0 / nr=0 / decimate=1 / interlaced=0 / bluray_compat=0 / constrained_intra=0 / bframes=8 / b_pyramid=2 / b_adapt=2 / b_bias=0 / direct=3 / weightb=1 / open_gop=0 / weightp=2 / keyint=250 / keyint_min=23 / scenecut=40 / intra_refresh=0 / rc=2pass / mbtree=0 / bitrate=5212 / ratetol=1.0 / qcomp=0.60 / qpmin=0 / qpmax=69 / qpstep=4 / cplxblur=20.0 / qblur=0.5 / ip_ratio=1.40 / pb_ratio=1.30 / aq=2:1.00
Language : English
Default : Yes
Forced : No

Audio #1
ID : 2
Format : AC-3
Format/Info : Audio Coding 3
Mode extension : CM (complete main)
Format settings, Endianness : Big
Codec ID : A_AC3
Duration : 1h 35mn
Bit rate mode : Constant
Bit rate : 448 Kbps
Channel(s) : 6 channels
Channel positions : Front: L C R, Side: L R, LFE
Sampling rate : 48.0 KHz
Compression mode : Lossy
Stream size : 306 MiB (7%)
Title : DUB RUS | DD 5.1 @ 448 kbps BD CEE
Language : Russian
Default : Yes
Forced : No

Audio #2
ID : 3
Format : AC-3
Format/Info : Audio Coding 3
Mode extension : CM (complete main)
Format settings, Endianness : Big
Codec ID : A_AC3
Duration : 1h 35mn
Bit rate mode : Constant
Bit rate : 448 Kbps
Channel(s) : 6 channels
Channel positions : Front: L C R, Side: L R, LFE
Sampling rate : 48.0 KHz
Compression mode : Lossy
Stream size : 306 MiB (7%)
Title : DUB UKR | DD 5.1 @ 448 kbps BD CEE
Language : Ukrainian
Default : No
Forced : No

Audio #3
ID : 4
Format : AC-3
Format/Info : Audio Coding 3
Mode extension : CM (complete main)
Format settings, Endianness : Big
Codec ID : A_AC3
Duration : 1h 35mn
Bit rate mode : Constant
Bit rate : 448 Kbps
Channel(s) : 6 channels
Channel positions : Front: L C R, Side: L R, LFE
Sampling rate : 48.0 KHz
Compression mode : Lossy
Stream size : 306 MiB (7%)
Title : Original | DD 5.1 @ 448 kbps
Language : English
Default : No
Forced : No

Text #1
ID : 5
Format : UTF-8
Codec ID : S_TEXT/UTF8
Codec ID/Info : UTF-8 Plain Text
Title : форс.
Language : Russian
Default : Yes
Forced : No

Text #2
ID : 6
Format : UTF-8
Codec ID : S_TEXT/UTF8
Codec ID/Info : UTF-8 Plain Text
Language : Russian
Default : No
Forced : No

Text #3
ID : 7
Format : UTF-8
Codec ID : S_TEXT/UTF8
Codec ID/Info : UTF-8 Plain Text
Language : Ukrainian
Default : No
Forced : No

Text #4
ID : 8
Format : UTF-8
Codec ID : S_TEXT/UTF8
Codec ID/Info : UTF-8 Plain Text
Title : Forced
Language : English
Default : No
Forced : No

Text #5
ID : 9
Format : UTF-8
Codec ID : S_TEXT/UTF8
Codec ID/Info : UTF-8 Plain Text
Title : Full
Language : English
Default : No
Forced : No

Text #6
ID : 10
Format : UTF-8
Codec ID : S_TEXT/UTF8
Codec ID/Info : UTF-8 Plain Text
Title : SDH
Language : English
Default : No
Forced : No

Text #7
ID : 11
Format : UTF-8
Codec ID : S_TEXT/UTF8
Codec ID/Info : UTF-8 Plain Text
Title : SDH-Colored
Language : English
Default : No
Forced : No

Menu
00:00:00.000 : en:(01)00:00:00:000
00:02:58.050 : en:(02)00:02:58:050
00:05:39.629 : en:(03)00:05:39:629
00:08:35.014 : en:(04)00:08:35:014
00:12:08.476 : en:(05)00:12:08:476
00:15:07.697 : en:(06)00:15:07:697
00:19:24.246 : en:(07)00:19:24:246
00:22:20.087 : en:(08)00:22:20:087
00:26:08.148 : en:(09)00:26:08:148
00:28:59.570 : en:(10)00:28:59:570
00:33:02.145 : en:(11)00:33:02:145
00:37:25.952 : en:(12)00:37:25:952
00:41:07.088 : en:(13)00:41:07:088
00:43:14.632 : en:(14)00:43:14:632
00:47:02.485 : en:(15)00:47:02:485
00:50:53.050 : en:(16)00:50:53:050
00:53:13.231 : en:(17)00:53:13:231
00:56:30.219 : en:(18)00:56:30:219
01:00:16.278 : en:(19)01:00:16:278
01:03:57.791 : en:(20)01:03:57:791
01:06:48.378 : en:(21)01:06:48:378
01:09:09.895 : en:(22)01:09:09:895
01:11:52.015 : en:(23)01:11:52:015
01:15:53.215 : en:(24)01:15:53:215
01:18:52.769 : en:(25)01:18:52:769
01:21:13.408 : en:(26)01:21:13:408
01:23:33.841 : en:(27)01:23:33:841
01:27:11.893 : en:(28)01:27:11:893
01:35:24.466 : en:(29)01:35:24:466







Скачать Книга.жизни.The.Book.of.Life.(Хорхе.Р.Гутьеррес.Jorge.R.Gutierrez).[2014.Мультфильм.фэнтези.мелодрама.комедия.приключения.семейный.BDRip][1080p][DUB][R.G.GoldenShara].torrent без регистрации
Золото ЗОЛОТАЯ РАЗДАЧА! СКАЧАННОЕ НЕ ЗАСЧИТЫВАЕТСЯ! Золото
Дата: Зарегистрирован   [ Тип: внутренний ] Как тут cкачать?
MAGNET ссылка
MAGNET ссылка


Скачать .torrent

11 KB

Статус: проверено
Скачан: торрент - 119 раз, раздача полностью - 28 раз
Размер: 4,37 GB
Оценка:  5 (Голосов: 6)
Поблагодарили: 13
Поделиться ссылкой на эту раздачу с друзьями:
В контактеFacebookОдноклассникиTwitterLivejournalМой МирLiveinternet
 

 

Kitaec1

[] 

Друзья, раздайте пожалуйста релиз, в долгу не останусь ab
 
Показать сообщения:    


Вы не можете начинать темы
Вы не можете отвечать на сообщения
Вы не можете редактировать свои сообщения
Вы не можете удалять свои сообщения
Вы не можете голосовать в опросах
Вы не можете прикреплять файлы к сообщениям
Вы можете скачивать файлы