Loading...
Error

Скачать Купи меня (Вадим Перельман) [2017, мелодрама, HDTV 1080i] торрент без регистрации

Статистика раздачи
Размер:  4,69 GB   |    Скачан:  114 раз
Сидов:  1  [  0 KB/s  ]  
 
 
 
Автор Сообщение

leon030982

[] 

Купи меня
Год выпуска: 2017
Страна: Россия
Жанр: мелодрама
Продолжительность: 01:42:33
Язык : Русский [Кинопремьера HD]
Субтитры: нет

Режиссер: Вадим Перельман

В ролях: Анна Адамович, Юлия Хлынина, Светлана Устинова

Описание: Три девушки – три истории о том, как изменить свою жизнь и чем предстоит пожертвовать, чтобы стать «счастливыми». Порше, олигархи, секс, любовь и мечты о красивой жизни. Смогут ли героини добиться успеха, или они сломаются, так и не дойдя до цели?



Тип релиза: HDTV 1080i
Контейнер: TS
Видео: MPEG4 Video (H264) 1920x1080, 25fps, 5765 Кбит/сек, 0.111
Аудио: AC-3, 448 Kbps : 6сн : 48,0 КГц
Общее
Идентификатор : 1 (0x1)
Полное имя : D:\TR\Kupi menja_bySat.ts
Формат : MPEG-TS
Размер файла : 4,69 Гбайт
Продолжительность : 1 ч. 42 м.
Режим общего битрейта : Переменный
Общий поток : 6541 Кбит/сек

Видео
Идентификатор : 321 (0x141)
Идентификатор меню : 1 (0x1)
Формат : AVC
Формат/Информация : Advanced Video Codec
Профиль формата : High@L4.0
Параметр CABAC формата : Да
Параметр ReFrames формата : 4 кадра
Идентификатор кодека : 27
Продолжительность : 1 ч. 42 м.
Битрейт : 5765 Кбит/сек
Ширина : 1920 пикселей
Высота : 1080 пикселей
Соотношение сторон : 16:9
Частота кадров : 25,000 кадров/сек
Стандарт вещания : Component
Цветовое пространство : YUV
Субдискретизация насыщенности : 4:2:0
Битовая глубина : 8 бит
Тип развёртки : Чересстрочная
Порядок развёртки : Верхнее поле первое
Бит/(Пиксели*Кадры) : 0.111
Размер потока : 4,13 Гбайт (88%)
Основные цвета : BT.709
Характеристики трансфера : BT.709
Коэффициенты матрицы : BT.709
colour_range : Limited

Аудио
Идентификатор : 421 (0x1A5)
Идентификатор меню : 1 (0x1)
Формат : AC-3
Формат/Информация : Audio Coding 3
Расширение режима : CM (complete main)
Параметр Endianness формата : Big
Идентификатор кодека : 6
Продолжительность : 1 ч. 42 м.
Вид битрейта : Постоянный
Битрейт : 448 Кбит/сек
Каналы : 6 каналов
Расположение каналов : Front: L C R, Side: L R, LFE
Частота : 48,0 КГц
Битовая глубина : 16 бит
Метод сжатия : С потерями
Размер потока : 329 Мбайт (7%)
Язык : Russian



Скачать Купи.меня.(Вадим.Перельман).[2017.мелодрама.HDTV.1080i].torrent без регистрации
Золото ЗОЛОТАЯ РАЗДАЧА! СКАЧАННОЕ НЕ ЗАСЧИТЫВАЕТСЯ! Золото
Дата: Зарегистрирован   [ Тип: внутренний ] Как тут cкачать?
MAGNET ссылка
MAGNET ссылка


Скачать .torrent

24 KB

Статус: проверено DHT
Скачан: торрент - 114 раз, раздача полностью - 119 раз
Размер: 4,69 GB
Оценка:  - (Голосов: 0)
Поблагодарили: 3
Поделиться ссылкой на эту раздачу с друзьями:
В контактеFacebookОдноклассникиTwitterLivejournalМой МирLiveinternet
 

 
Показать сообщения:    


Вы не можете начинать темы
Вы не можете отвечать на сообщения
Вы не можете редактировать свои сообщения
Вы не можете удалять свои сообщения
Вы не можете голосовать в опросах
Вы не можете прикреплять файлы к сообщениям
Вы можете скачивать файлы