Loading...
Error

Скачать Лига справедливости / Justice League (Зак Снайдер (Джосс Уидон)) [2017, Фантастика, фэнтези, боевик, приключения, супергерой, BDRip][1080p] [Dub Rus Ukr Лицензия] [R.G. GoldenShara] торрент без регистрации

Статистика раздачи
Размер:  4,53 GB   |    Скачан:  233 раза
Сидов:  3  [  0 KB/s  ]   Личеров:  1  [  0 KB/s  ]  
 
 
 
Автор Сообщение

Magnetto83

[] 


Лига справедливости / Justice League


Год выпуска: 2017
Выпущено: США | Atlas Entertainment, Cruel & Unusual Films, DC Comics, DC Entertainment, Dune Entertainment, Lensbern Productions, Warner Bros.
Жанр: Фантастика, фэнтези, боевик, приключения, супергерой
Продолжительность: 02:00:03
Перевод 1 и 2: Профессиональный (полное дублирование) | Blu-ray CEE |
Субтитры: Русские (форс.+полные), украинские (форс.), английские (full, SDH, SHD Colored)
Навигация по главам: Сохранены оригинальные главы как на Blu-ray

Слоган: «Нельзя спасти мир в одиночку»

Режиссер: Зак Снайдер (Джосс Уидон)

В ролях: Галь Гадот, Робин Райт, Джейсон Момоа, Конни Нильсен, Эми Адамс, Бен Аффлек, Эзра Миллер, Эмбер Хёрд, Генри Кавилл, Дайан Лэйн

Описание: Брюс Уэйн, вдохновленный самопожертвованием Супермена, вновь обретает веру в человечество. Он заручается поддержкой новой союзницы, Дианы Принс, чтобы сразиться с еще более могущественным противником. Бэтмен и Чудо-Женщина быстро набирают команду сверхлюдей для борьбы с пробудившейся угрозой. Но несмотря на уникальный состав отряда супергероев — Бэтмен, Чудо-Женщина, Аквамэн, Киборг и Флэш, — быть может, спасать планету от вторжения катастрофических масштабов уже слишком поздно.



Возраст: 16+ (зрителям, достигшим 16 лет)
Рейтинг MPAA: PG-13 (детям до 13 лет просмотр нежелателен)

Качество: BDRip 1080p
Формат: MKV
Видео кодек: H.264
Аудио кодек: AC3
Видео: 1920x1080 (16:9), 4760 kbps, 23.976 fps
Аудио 1: Русский Dolby Digital 5.1 (448 Кбит/с) (Вшит в рип)
Аудио 2: Украинский Dolby Digital 2.0 (192 Кбит/с) (Отдельным файлом в папке)


В папке с фильмом отдельным файлом.



General
Complete name : G:\Видео\DC Universe 1080p\05 Лига справедливости 2017 Dub Rus Ukr BDRip 1080p\Лига справедливости 2017 Dub BDRip 1080p.mkv
Format : Matroska
Format version : Version 2
File size : 4.37 GiB
Duration : 2h 0mn
Overall bit rate : 5 209 Kbps
Movie name : Лига справедливости 2017 Dub Rus BDRip 1080p By R.G. GoldenShara
Encoded date : UTC 2018-03-12 10:53:48
Writing application : mkvmerge v5.2.0 ('I can't explain') built on Dec 18 2011 18:12:03
Writing library : libebml v1.2.3 + libmatroska v1.3.0
Attachements : Cover

Video
ID : 1
Format : AVC
Format/Info : Advanced Video Codec
Format profile : High@L4.1
Format settings, CABAC : Yes
Format settings, ReFrames : 4 frames
Codec ID : V_MPEG4/ISO/AVC
Duration : 2h 0mn
Bit rate : 4 760 Kbps
Width : 1 920 pixels
Height : 1 080 pixels
Display aspect ratio : 16:9
Frame rate mode : Constant
Frame rate : 23.976 fps
Color space : YUV
Chroma subsampling : 4:2:0
Bit depth : 8 bits
Scan type : Progressive
Bits/(Pixel*Frame) : 0.096
Stream size : 3.90 GiB (89%)
Title : Лига справедливости 2017 BDRip 1080p By Magnetto 83
Writing library : x264 core 146 r2538 121396c
Encoding settings : cabac=1 / ref=4 / deblock=1:-1:-1 / analyse=0x3:0x113 / me=umh / subme=10 / psy=1 / psy_rd=1.00:0.00 / mixed_ref=1 / me_range=32 / chroma_me=1 / trellis=2 / 8x8dct=1 / cqm=0 / deadzone=21,11 / fast_pskip=0 / chroma_qp_offset=-2 / threads=3 / lookahead_threads=1 / sliced_threads=0 / nr=0 / decimate=1 / interlaced=0 / bluray_compat=0 / constrained_intra=0 / bframes=8 / b_pyramid=2 / b_adapt=2 / b_bias=0 / direct=3 / weightb=1 / open_gop=0 / weightp=2 / keyint=250 / keyint_min=23 / scenecut=40 / intra_refresh=0 / rc=2pass / mbtree=0 / bitrate=4760 / ratetol=1.0 / qcomp=0.60 / qpmin=0 / qpmax=69 / qpstep=4 / cplxblur=20.0 / qblur=0.5 / ip_ratio=1.40 / pb_ratio=1.30 / aq=2:1.00
Language : English
Default : Yes
Forced : No

Audio
ID : 2
Format : AC-3
Format/Info : Audio Coding 3
Mode extension : CM (complete main)
Format settings, Endianness : Big
Codec ID : A_AC3
Duration : 2h 0mn
Bit rate mode : Constant
Bit rate : 448 Kbps
Channel(s) : 6 channels
Channel positions : Front: L C R, Side: L R, LFE
Sampling rate : 48.0 KHz
Compression mode : Lossy
Stream size : 385 MiB (9%)
Title : DD 5.1 @448 Kbps - Дубляж | Blu-ray CEE |
Language : Russian
Default : Yes
Forced : No

Text #1
ID : 3
Format : UTF-8
Codec ID : S_TEXT/UTF8
Codec ID/Info : UTF-8 Plain Text
Title : Форс.
Language : Russian
Default : Yes
Forced : No

Text #2
ID : 4
Format : UTF-8
Codec ID : S_TEXT/UTF8
Codec ID/Info : UTF-8 Plain Text
Title : Полные
Language : Russian
Default : No
Forced : No

Text #3
ID : 5
Format : UTF-8
Codec ID : S_TEXT/UTF8
Codec ID/Info : UTF-8 Plain Text
Title : Форс.
Language : Ukrainian
Default : No
Forced : No

Text #4
ID : 6
Format : UTF-8
Codec ID : S_TEXT/UTF8
Codec ID/Info : UTF-8 Plain Text
Title : Full
Language : English
Default : No
Forced : No

Menu
00:00:00.000 : en:Chapter 1
00:10:56.155 : en:Chapter 2
00:19:16.488 : en:Chapter 3
00:30:41.673 : en:Chapter 4
00:40:19.667 : en:Chapter 5
00:49:56.535 : en:Chapter 6
01:01:26.891 : en:Chapter 7
01:09:41.552 : en:Chapter 8
01:19:18.587 : en:Chapter 9
01:30:34.512 : en:Chapter 10
01:40:33.569 : en:Chapter 11
01:48:43.058 : en:Chapter 12







Скачать Лига.справедливости.Justice.League.(Зак.Снайдер.(Джосс.Уидон)).[2017.Фантастика.фэнтези.боевик.приключения.супергерой.BDRip][1080p].[Dub.Rus.Ukr.Лицензия].[R.G.GoldenShara].torrent без регистрации
Золото ЗОЛОТАЯ РАЗДАЧА! СКАЧАННОЕ НЕ ЗАСЧИТЫВАЕТСЯ! Золото
Дата: Зарегистрирован   [ Тип: внутренний ] Как тут cкачать?
MAGNET ссылка
MAGNET ссылка


Скачать .torrent

12 KB

Статус: проверено
Скачан: торрент - 233 раз, раздача полностью - 212 раз
Размер: 4,53 GB
Оценка:  5 (Голосов: 6)
Поблагодарили: 19
Поделиться ссылкой на эту раздачу с друзьями:
В контактеFacebookОдноклассникиTwitterLivejournalМой МирLiveinternet
 

 

7Жнец7

[] 

Пожалуйста BDRip 720 сделай.
Скачиваю только в этом качестве.
Заранее Спасибо!
 
Показать сообщения:    


Вы не можете начинать темы
Вы не можете отвечать на сообщения
Вы не можете редактировать свои сообщения
Вы не можете удалять свои сообщения
Вы не можете голосовать в опросах
Вы не можете прикреплять файлы к сообщениям
Вы можете скачивать файлы