Loading...
Error

Скачать 6 дней / 6 Days (Тоа Фрейзер) [2017, боевик, триллер, драма, история, BDRemux] [1080p] [MVO (лицензия iTunes)]+[Eng]+[Sub Eng] торрент без регистрации

Статистика раздачи
Размер:  18,97 GB   |    Скачан:  67 раз
Сидов:  1  [  0 KB/s  ]  
 
 
 
Автор Сообщение

МихаНЕзатор

[] 

Информация о фильме
Название: 6 дней
Оригинальное название: 6 Days
Год выхода: 2017
Жанр: Боевик, триллер, драма, история
Режиссер: Тоа Фрейзер

В ролях: Марк Стронг, Джейми Белл, Эбби Корниш, Иман Эллиотт, Мартин Шоу, Ронан Вайберт, Тим Пиготт-Смит, Джаред Тернер, Кип Чэпман, Николас Болтон

О фильме: В 1980 году по Лондону молниеносно разлетелась новость о террористической атаке, направленной на иранское посольство. Все началось с того, что группа неизвестных ворвалась в здание посольства и взяла в плен всех его сотрудников. Власти пытались договориться с террористами, однако их требования были невыполнимыми. Руководство спецназа приняло решение взять штурмом здание, несмотря на то, что могли появиться жертвы среди гражданского населения. Ситуация обострялась тем, что здание посольства было хорошо укреплено, и это мешало солдатам быстро достигать поставленных целей.



Страна: Новая Зеландия, Великобритания
Студия: General Film Corporation
Продолжительность: 01:34:34
Перевод: Профессиональный многоголосый | iTunes

Качество: BDRemux 1080p
Видео: MPEG-4 AVC, 1920x1080, 24.8 Mbit/s, 23.976 fps
Звук:
Аудио #01: 48 kHz, AC3, 5.1, 384 Kbps | iTunes | RUS |
Аудио #02: 48 kHz, DTS-HD MA, 5.1, 3529 Kbps | Оригинал | ENG |
Субтитры: Английские
General
Unique ID : 71336135054620542977798526129191349443 (0x35AAD7012FBE87F450E9894A69B56CC3)
Complete name : C:Video1116.Days.2017.MVO.BDREMUX.1080p.ExKinoRay.mkv
Format : Matroska
Format version : Version 4 / Version 2
File size : 19.0 GiB
Duration : 1 h 34 min
Overall bit rate mode : Variable
Overall bit rate : 28.7 Mb/s
Movie name : 6 Days 2017 from ExKinoRay
Encoded date : UTC 2018-04-04 19:33:29
Writing application : mkvmerge v22.0.0 ('At The End Of The World') 64-bit
Writing library : libebml v1.3.5 + libmatroska v1.4.8

Video
ID : 1
Format : AVC
Format/Info : Advanced Video Codec
Format profile : High@L4.1
Format settings : CABAC / 4 Ref Frames
Format settings, CABAC : Yes
Format settings, ReFrames : 4 frames
Codec ID : V_MPEG4/ISO/AVC
Duration : 1 h 34 min
Bit rate mode : Variable
Bit rate : 24.8 Mb/s
Maximum bit rate : 35.0 Mb/s
Width : 1 920 pixels
Height : 1 080 pixels
Display aspect ratio : 16:9
Frame rate mode : Constant
Frame rate : 23.976 (24000/1001) FPS
Standard : NTSC
Color space : YUV
Chroma subsampling : 4:2:0
Bit depth : 8 bits
Scan type : Progressive
Bits/(Pixel*Frame) : 0.499
Stream size : 16.4 GiB (86%)
Language : English
Default : Yes
Forced : No
Color range : Limited
Color primaries : BT.709
Transfer characteristics : BT.709
Matrix coefficients : BT.709

Audio #1
ID : 2
Format : AC-3
Format/Info : Audio Coding 3
Codec ID : A_AC3
Duration : 1 h 34 min
Bit rate mode : Constant
Bit rate : 384 kb/s
Channel(s) : 6 channels
Channel positions : Front: L C R, Side: L R, LFE
Sampling rate : 48.0 kHz
Frame rate : 31.250 FPS (1536 SPF)
Bit depth : 16 bits
Compression mode : Lossy
Stream size : 260 MiB (1%)
Title : iTunes
Language : Russian
Service kind : Complete Main
Default : Yes
Forced : Yes

Audio #2
ID : 3
Format : DTS
Format/Info : Digital Theater Systems
Format profile : MA / Core
Codec ID : A_DTS
Duration : 1 h 34 min
Bit rate mode : Variable / Constant
Bit rate : 3 529 kb/s / 1 509 kb/s
Channel(s) : 6 channels
Channel positions : Front: L C R, Side: L R, LFE
Sampling rate : 48.0 kHz
Frame rate : 93.750 FPS (512 SPF)
Bit depth : 24 bits
Compression mode : Lossless / Lossy
Stream size : 2.33 GiB (12%)
Title : Original
Language : English
Default : No
Forced : No

Text #1
ID : 4
Format : UTF-8
Codec ID : S_TEXT/UTF8
Codec ID/Info : UTF-8 Plain Text
Duration : 1 h 27 min
Bit rate : 52 b/s
Count of elements : 1032
Stream size : 33.8 KiB (0%)
Title : Full
Language : English
Default : No
Forced : No

Text #2
ID : 5
Format : UTF-8
Codec ID : S_TEXT/UTF8
Codec ID/Info : UTF-8 Plain Text
Duration : 1 h 28 min
Bit rate : 60 b/s
Count of elements : 1242
Stream size : 38.9 KiB (0%)
Title : SDH
Language : English
Default : No
Forced : No

Text #3
ID : 6
Format : UTF-8
Codec ID : S_TEXT/UTF8
Codec ID/Info : UTF-8 Plain Text
Duration : 1 h 28 min
Bit rate : 101 b/s
Count of elements : 1241
Stream size : 65.7 KiB (0%)
Title : SDH Colored
Language : English
Default : No
Forced : No

Menu
00:00:00.000 : en:Chapter 1
00:05:53.436 : en:Chapter 2
00:11:55.757 : en:Chapter 3
00:17:58.577 : en:Chapter 4
00:24:04.860 : en:Chapter 5
00:30:02.175 : en:Chapter 6
00:36:44.327 : en:Chapter 7
00:41:56.139 : en:Chapter 8
00:48:57.726 : en:Chapter 9
00:54:16.503 : en:Chapter 10
01:00:52.148 : en:Chapter 11
01:06:29.319 : en:Chapter 12
01:12:07.448 : en:Chapter 13
01:17:54.336 : en:Chapter 14
01:24:07.376 : en:Chapter 15
01:30:12.073 : en:Chapter 16



Скачать 6.дней.6.Days.(Тоа.Фрейзер).[2017.боевик.триллер.драма.история.BDRemux].[1080p].[MVO.(лицензия.iTunes)]+[Eng]+[Sub.Eng].torrent без регистрации
Золото ЗОЛОТАЯ РАЗДАЧА! СКАЧАННОЕ НЕ ЗАСЧИТЫВАЕТСЯ! Золото
Дата: Зарегистрирован   [ Тип: внутренний ] Как тут cкачать?
MAGNET ссылка
MAGNET ссылка


Скачать .torrent

96 KB

Статус: проверено DHT
Скачан: торрент - 67 раз, раздача полностью - 47 раз
Размер: 18,97 GB
Оценка:  - (Голосов: 0)
Поблагодарили: 3
Поделиться ссылкой на эту раздачу с друзьями:
В контактеFacebookОдноклассникиTwitterLivejournalМой МирLiveinternet
 

 
Показать сообщения:    


Вы не можете начинать темы
Вы не можете отвечать на сообщения
Вы не можете редактировать свои сообщения
Вы не можете удалять свои сообщения
Вы не можете голосовать в опросах
Вы не можете прикреплять файлы к сообщениям
Вы можете скачивать файлы