Loading...
Error

Скачать Эш против Зловещих мертвецов / Ash vs Evil Dead [2018] (Сезон 3 , Серия 1-8 из 10) (Майкл Херст, Рик Джейкобсон) [Ужасы, боевик, комедия , WEB-DLRip][1080p][Gobli+NewStudiо+AlexFilm+Kubik V Kube+Eng]+[Subs ENG+Rus] торрент без регистрации

Статистика раздачи
Размер:  18,21 GB   |    Скачан:  152 раза
Сидов:  2  [  0 KB/s  ]  
 
 
 
Автор Сообщение

Nikolai.Baranov

[] 



Эш против Зловещих мертвецов / Ash vs Evil Dead Сезон 3 , Серия 1-8 из 10




Год выпуска:2018
Выпущено: США , Starz, Renaissance Pictures
Жанр: Ужасы, боевик, комедия
Продолжительность: 00:30:00
Сезон:3
Серия:1-8
Количество серий в сезоне: 10

Озвучка1: Авторский - Дмитрий Пучков (Goblin) -Русский

Озвучка2: Профессиональный многоголосый - AlexFilm -Русский

Озвучка 3:Профессиональный двухголосый -Кубик в Кубе-Русский

Озвучка4: Профессиональный многоголосый - NewStudiо -Русский

Озвучка 5: Профессиональный многоголосый - Английский - Оригинал

Субтитры: : Russian, English, English SDH

MDB

Режиссеры:
Майкл Херст, Рик Джейкобсон, Сэм Рэйми

Актеры:
Брюс Кэмпбелл, Джилл Мари Джонс, Дэна ДеЛоренцо, Люси Лоулесс, Рэй Сантьяго, Мими Роджерс, Хемки Мадера, Фил Пелетон, Дэмиен Гарви



Последние тридцать лет Эш старательно избегал всего, что связано с воспоминаниями о зловещих мертвецах, но когда очередное нашествие дедайтов грозит уничтожить всё население планеты, Эш становится единственным шансом человечества на спасение.




Качество :WEB-DLRip 1080p
Формат: MKV
Видео кодек: H264
Видео: 9626Kбит/сек,1920х1080(16.9),в 23.976кадр/сек,AVC (High@L4)(CABAC/4 Ref Frames)

Аудио Кодек:AC3

[Аудио #1:AC3 192 Kbps, 48.0 KHz, 6 ch- Дмитрий Пучков (Goblin) -Русский

Аудио #2:AC3 , 384 Kbps, 48.0 KHz, 6 ch- NewStudiо -Русский

Аудио #3:AC3 , 384 Kbps, 48.0 KHz, 6 ch- AlexFilm -Русский

Аудио #5:AC3 , 384 Kbps, 48.0 KHz, 6 ch-Кубик в Кубе -Русский

Аудио #6: AC3, 640 Kbps, 48.0 KHz,6 ch - - English - Оригинал


Звуковая дорожка сделана путем наложения чистого голоса озвучивателей на центральный канал оригинальной дорожки. Качество идентично звуковой дорожке.




3 сезон 1 серия - Семья - Family
3 сезон 2 серия - Третья кабинка - Booth Three
3 сезон 3 серия - Вроде бы мертва - Apparently Dead
3 сезон 4 серия - Неоконченное дело - Unfinished Business
3 сезон 5 серия - Защита от ребёнка - Baby Proof
3 сезон 6 серия - Байки из трещины - Tales From the Rift
3 сезон 7 серия - Вертись-крутись - Twist And Shout
3 сезон 8 серия - Вперёд в трещину - Rifting Apart





Общее
Уникальный идентификатор : 283087145076970807668634510937431363468 (0xD4F899D85980868203F1DB1CB5024F8C)
Полное имя : C:\Nikolai.Baranov & PIRATIYA\Эш против Зловещих мертвецов ( Ash vs Evil Dead)\Ash_vs_Evil_Dead_S03_Н264_DD5.1_N.B_HD_1080_4xRus_Eng\Ash_vs_Evil_Dead_S03E01_Н264_DD5.1_N.B_HD_1080_4xRus_Eng.mkv
Формат : Matroska
Версия формата : Version 4 / Version 2
Размер файла : 2,28 Гбайт
Продолжительность : 28 м. 6 с.
Режим общего битрейта : Переменный
Общий поток : 11,6 Мбит/сек
Название фильма : Ash vs Evil Dead S03E01 @ Nikolai.Baranov & PIRATIYA
Дата кодирования : UTC 2018-04-04 20:00:23
Программа кодирования : mkvmerge v22.0.0 ('At The End Of The World') 64-bit
Библиотека кодирования : libebml v1.3.5 + libmatroska v1.4.8

Видео
Идентификатор : 1
Формат : AVC
Формат/Информация : Advanced Video Codec
Профиль формата : High@L4
Настройки формата : CABAC / 4 Ref Frames
Параметр CABAC формата : Да
Параметр RefFrames формата : 4 кадра
Идентификатор кодека : V_MPEG4/ISO/AVC
Продолжительность : 28 м. 6 с.
Вид битрейта : Переменный
Битрейт : 9626 Кбит/сек
Максимальный битрейт : 15,0 Мбит/сек
Ширина : 1920 пикселей
Высота : 1080 пикселей
Соотношение сторон : 16:9
Режим частоты кадров : Постоянный
Частота кадров : 23,976 (24000/1001) кадра/сек
Цветовое пространство : YUV
Субдискретизация насыщенности : 4:2:0
Битовая глубина : 8 бит
Тип развёртки : Прогрессивная
Бит/(Пиксели*Кадры) : 0.194
Размер потока : 1,89 Гбайт (83%)
Заголовок : Ash_vs_Evil_Dead_S03E01_Н264_DD5.1_N.B_HD_1080_4xRus_Eng
Язык : Russian
Default : Нет
Forced : Нет
Цветовой диапазон : Limited
Основные цвета : BT.709
Характеристики трансфера : BT.709
Коэффициенты матрицы : BT.709

Аудио #1
Идентификатор : 5
Формат : AC-3
Формат/Информация : Audio Coding 3
Идентификатор кодека : A_AC3
Продолжительность : 28 м. 6 с.
Вид битрейта : Постоянный
Битрейт : 192 Кбит/сек
Каналы : 6 каналов
Расположение каналов : Front: L C R, Side: L R, LFE
Частота : 48,0 КГц
Частота кадров : 31,250 кадров/сек (1536 SPF)
Битовая глубина : 16 бит
Метод сжатия : С потерями
Размер потока : 38,6 Мбайт (2%)
Заголовок : Goblin @DD5.1 AC3, 192 Kbps, 48.0 KHz, 6 ch
Язык : Russian
ServiceKind/String : Complete Main
Default : Да
Forced : Нет

Аудио #2
Идентификатор : 6
Формат : AC-3
Формат/Информация : Audio Coding 3
Идентификатор кодека : A_AC3
Продолжительность : 27 м. 32 с.
Вид битрейта : Постоянный
Битрейт : 384 Кбит/сек
Каналы : 6 каналов
Расположение каналов : Front: L C R, Side: L R, LFE
Частота : 48,0 КГц
Частота кадров : 31,250 кадров/сек (1536 SPF)
Битовая глубина : 16 бит
Метод сжатия : С потерями
Размер потока : 75,6 Мбайт (3%)
Заголовок : MVO AlexFilm @DD5.1 AC3, 384 Kbps, 48.0 KHz, 6 ch
Язык : Russian
ServiceKind/String : Complete Main
Default : Нет
Forced : Нет

Аудио #3
Идентификатор : 7
Формат : AC-3
Формат/Информация : Audio Coding 3
Идентификатор кодека : A_AC3
Продолжительность : 28 м. 6 с.
Вид битрейта : Постоянный
Битрейт : 384 Кбит/сек
Каналы : 6 каналов
Расположение каналов : Front: L C R, Side: L R, LFE
Частота : 48,0 КГц
Частота кадров : 31,250 кадров/сек (1536 SPF)
Битовая глубина : 16 бит
Метод сжатия : С потерями
Размер потока : 77,2 Мбайт (3%)
Заголовок : MVO Kubik V Kube @DD5.1 AC3, 384 Kbps, 48.0 KHz, 6 ch
Язык : Russian
ServiceKind/String : Complete Main
Default : Нет
Forced : Нет

Аудио #4
Идентификатор : 8
Формат : AC-3
Формат/Информация : Audio Coding 3
Идентификатор кодека : A_AC3
Продолжительность : 28 м. 6 с.
Вид битрейта : Постоянный
Битрейт : 384 Кбит/сек
Каналы : 6 каналов
Расположение каналов : Front: L C R, Side: L R, LFE
Частота : 48,0 КГц
Частота кадров : 31,250 кадров/сек (1536 SPF)
Битовая глубина : 16 бит
Метод сжатия : С потерями
Размер потока : 77,2 Мбайт (3%)
Заголовок : MVO NewStudio @DD5.1 AC3, 384 Kbps, 48.0 KHz, 6 ch
Язык : Russian
ServiceKind/String : Complete Main
Default : Нет
Forced : Нет

Аудио #5
Идентификатор : 9
Формат : AC-3
Формат/Информация : Audio Coding 3
Идентификатор кодека : A_AC3
Продолжительность : 28 м. 6 с.
Вид битрейта : Постоянный
Битрейт : 640 Кбит/сек
Каналы : 6 каналов
Расположение каналов : Front: L C R, Side: L R, LFE
Частота : 48,0 КГц
Частота кадров : 31,250 кадров/сек (1536 SPF)
Битовая глубина : 16 бит
Метод сжатия : С потерями
Размер потока : 129 Мбайт (6%)
Заголовок : Original@DD5.1 AC3 ,640 Kbps, 48.0 KHz, 6 ch
Язык : English
ServiceKind/String : Complete Main
Default : Нет
Forced : Нет

Текст #1
Идентификатор : 2
Формат : UTF-8
Идентификатор кодека : S_TEXT/UTF8
Идентификатор кодека/Информация : UTF-8 Plain Text
Продолжительность : 26 м. 56 с.
Битрейт : 79 бит/сек
ElementCount : 329
Размер потока : 15,6 Кбайт (0%)
Заголовок : Rus
Язык : Russian
Default : Да
Forced : Нет

Текст #2
Идентификатор : 3
Формат : UTF-8
Идентификатор кодека : S_TEXT/UTF8
Идентификатор кодека/Информация : UTF-8 Plain Text
Продолжительность : 27 м. 19 с.
Битрейт : 51 бит/сек
ElementCount : 406
Размер потока : 10,3 Кбайт (0%)
Заголовок : Original
Язык : English
Default : Нет
Forced : Нет

Текст #3
Идентификатор : 4
Формат : UTF-8
Идентификатор кодека : S_TEXT/UTF8
Идентификатор кодека/Информация : UTF-8 Plain Text
Продолжительность : 27 м. 19 с.
Битрейт : 75 бит/сек
ElementCount : 556
Размер потока : 15,2 Кбайт (0%)
Заголовок : Original - SDH
Язык : English
Default : Нет
Forced : Нет

Меню
00:00:00.000 : en:Глава 01 / en:Глава 01 / en:Глава 01 / en:Глава 01 / en:Глава 01 / en:Глава 01 / en:Глава 01 / en:Глава 01 / en:Глава 01






Внимание! Раздача пополняется по мере выхода новых серий!



Раздача ведётся путём добавления новых серий; при каждом добавлении создётся новый торрент.
Чтобы начать докачку новой серии, пользователям необходимо сделать следующее:
1. остановить скачивание,
2. удалить старый торрент у себя из клиента (старые серии удалять не надо),
3. скачать новый торрент и запустить его у себя в клиенте вместо старого, при этом указать клиенту путь в старую папку, куда и должно происходить скачивание новых серий.

Ваш клиент при этом должен произвести хеширование (проверку) старой папки (если не производит сам - помогите ему сделать это), и будет докачивать только те серии которых у вас ещё нет. Старые серии при этом не удаляются, а продолжают раздаваться!

Eсли вы уже удалили старые серии, то предотвратить повторную закачку старых серий можно, отжав галочку в соответсвующих местах при запуске нового торрента. По возможности, желательно не удалять старые серии как можно дольше, чтобы релизёр не столько продолжал раздавать старые серии, а смог сконцентрироваться на новых.

Совет для тех, кто не хочет ждать перехеширования:
Создайте ещё одну папку рядом с папкой сериала (рядом, а не в ней!!!). Каждую новую серию после удачной загрузки копируйте в новую папку так чтобы ваша основная папка всегда была пуста. Когда ваш новый торрент предложит вам закачать все файлы, выберете только последнюю. Для сидирования же укажите адрес новой папки.

Как закачать отдельный файл из торрента или докачать ранее пропущенные файлы торрента!

1. Открыть торрент
2. Снять галки с тех файлов торрента, которые мы не хотим закачивать. Оставляем только на нужных нам файлах (файле).
3. Нажать О.К.

В клиенте utorrent

Инструкция

1) Открыть торрент


2) Снять галки с тех файлов торрента, которые мы не хотим закачивать:

* либо вручную, снимая с каждого файла галку( скрин №1)
* либо, нажав кнопку "Снять метки (Select None)", сняв сразу со всех файлов(скрин №2)
№1

№2

Оставляем только на нужных нам файлах (файле).

3)Нажать О.К






Внимание!!! 20.04. 2018. РАЗДАЧА ОБНОВЛЕНА. ДОБАВЛЕНА 8 СЕРИЯ. ОБНОВИТЕ ТОРЕНТ ФАЙЛ. ПРИЯТНОГО ПРОСМОТРА .

Релиз от: Nikolai.Baranov & PIRATIYA










Скачать Эш.против.Зловещих.мертвецов.Ash.vs.Evil.Dead.[2018].(Сезон.3.Серия.1-8.из.10).(Майкл.Херст.Рик.Джейкобсон).[Ужасы.боевик.комедия.WEB-DLRip][1080p][Gobli+NewStudiо+AlexFilm+Kubik.V.Kube+Eng]+[Subs.ENG+Rus].torrent без регистрации
Золото ЗОЛОТАЯ РАЗДАЧА! СКАЧАННОЕ НЕ ЗАСЧИТЫВАЕТСЯ! Золото
Дата: Зарегистрирован   [ Тип: внешний ] Как тут cкачать?
MAGNET ссылка
MAGNET ссылка


Скачать .torrent

49 KB

Статус: проверено DHT
Скачан: торрент - 152 раз, раздача полностью - 2 раз
Размер: 18,21 GB
Оценка:  - (Голосов: 0)
Поблагодарили: 1
Поделиться ссылкой на эту раздачу с друзьями:
В контактеFacebookОдноклассникиTwitterLivejournalМой МирLiveinternet
 

 
Показать сообщения:    


Вы не можете начинать темы
Вы не можете отвечать на сообщения
Вы не можете редактировать свои сообщения
Вы не можете удалять свои сообщения
Вы не можете голосовать в опросах
Вы не можете прикреплять файлы к сообщениям
Вы можете скачивать файлы