Loading...
Error

Скачать Белоснежка и Охотник 2 / The Huntsman Winter's War (Седрик Николя-Троян) [2016, фантастика, боевик, приключения, BDRip] [720p] [DUB] [Расширенная версия] [R.G. GoldenShara] торрент без регистрации

Статистика раздачи
Размер:  2,22 GB   |    Скачан:  69 раз

Полного источника не было: 21 день

 
 
 
Автор Сообщение

LORDKILL

[] 


Белоснежка и Охотник 2 / The Huntsman Winter's War


Год выпуска: 2016
Выпущено: США
Жанр: фантастика, боевик, приключения
Продолжительность: 02:00:10
Перевод: Профессиональный (полное дублирование)
Субтитры: русские (форс., полные), английские

Режиссер: Седрик Николя-Троян

В ролях: Крис Хемсворт, Шарлиз Терон, Джессика Честейн, Эмили Блант, Ник Фрост, Роб Брайдон, Шеридан Смит, Александра Роуч, Сопе Дирису, Сэм Хэзелдайн, Сэм Клафлин, Софи Куксон, Конрад Кхан, Ниам Уолтер, Нана Аджйеман-Бедьяко, Амелия Крауч, Фред Татаскьор, Ралф Айнесон, Линн Уилмот, Колин Морган

Описание: Злая колдунья Равенна уничтожена. На трон королевства Табор восходит Белоснежка, неся в сказочный мир добро, радость и низкие налоги. Но сестра Равенны, ледяная королева Фрейя, готовит рабочий план по досрочному наступлению нового ледникового периода с помощью волшебного зеркала и своей армии специально обученных воинов, не ведающих человеческих слабостей. Ей противостоят бесстрашный охотник Эрик и его возлюбленная Сара.







Качество: BDRip 720p
Формат: MKV
Видео кодек: H.264
Аудио кодек: AC3
Видео: 1280x536 (2.40:1), 2200 kbps, 23.976 fps
Аудио: Русский (AC-3, 6ch, 448 kbps)

x264 [info]: frame I:1537 Avg QP:16.80 size: 77851
x264 [info]: frame P:38377 Avg QP:17.93 size: 24510
x264 [info]: frame B:132966 Avg QP:21.46 size: 6942
x264 [info]: consecutive B-frames: 2.6% 2.5% 6.9% 19.2% 27.3% 34.7% 4.0% 1.6% 1.2%
x264 [total]: encoded 172880 frames, 5.81 fps, 2200.43 kb/s
General
Unique ID : 228141664549976073589738187229357390083 (0xABA27C803F949142BE77AD0FB447B903)
Complete name : F:\ФИЛЬМЫ\БЕЛОСНЕЖКА И ОХОТНИК\Белоснежка.и.охотник-2.2016.x264.BDRip.720p.DUB.(Расширенная версия).mkv
Format : Matroska
Format version : Version 4 / Version 2
File size : 2.22 GiB
Duration : 2 h 0 min
Overall bit rate : 2 650 kb/s
Movie name : Белоснежка и Охотник 2 / The Huntsman Winter's War (2016) (Расширенная версия) - #LORDKILL#
Encoded date : UTC 2017-07-20 18:19:15
Writing application : mkvmerge v9.5.0 ('Quiet Fire') 64bit
Writing library : libebml v1.3.4 + libmatroska v1.4.5

Video
ID : 1
Format : AVC
Format/Info : Advanced Video Codec
Format profile : High@L4.1
Format settings, CABAC : Yes
Format settings, ReFrames : 11 frames
Codec ID : V_MPEG4/ISO/AVC
Duration : 2 h 0 min
Bit rate : 2 200 kb/s
Width : 1 280 pixels
Height : 536 pixels
Display aspect ratio : 2.40:1
Frame rate mode : Constant
Frame rate : 23.976 (24000/1001) FPS
Color space : YUV
Chroma subsampling : 4:2:0
Bit depth : 8 bits
Scan type : Progressive
Bits/(Pixel*Frame) : 0.134
Stream size : 1.85 GiB (83%)
Writing library : x264 core 146 r2538 121396c
Encoding settings : cabac=1 / ref=11 / deblock=1:-2:-2 / analyse=0x3:0x113 / me=umh / subme=11 / psy=1 / psy_rd=1.00:0.10 / mixed_ref=1 / me_range=64 / chroma_me=1 / trellis=2 / 8x8dct=1 / cqm=0 / deadzone=21,11 / fast_pskip=0 / chroma_qp_offset=-3 / threads=12 / lookahead_threads=2 / sliced_threads=0 / nr=0 / decimate=1 / interlaced=0 / bluray_compat=0 / constrained_intra=0 / bframes=8 / b_pyramid=2 / b_adapt=2 / b_bias=0 / direct=1 / weightb=1 / open_gop=0 / weightp=2 / keyint=240 / keyint_min=23 / scenecut=40 / intra_refresh=0 / rc=crf / mbtree=0 / crf=19.0 / qcomp=0.60 / qpmin=0 / qpmax=69 / qpstep=4 / ip_ratio=1.40 / pb_ratio=1.30 / aq=1:1.00
Default : Yes
Forced : No

Audio
ID : 2
Format : AC-3
Format/Info : Audio Coding 3
Mode extension : CM (complete main)
Format settings, Endianness : Big
Codec ID : A_AC3
Duration : 2 h 0 min
Bit rate mode : Constant
Bit rate : 448 kb/s
Channel(s) : 6 channels
Channel positions : Front: L C R, Side: L R, LFE
Sampling rate : 48.0 kHz
Frame rate : 31.250 FPS (1536 spf)
Bit depth : 16 bits
Compression mode : Lossy
Stream size : 385 MiB (17%)
Title : Дубляж
Language : Russian
Default : Yes
Forced : No

Text #1
ID : 3
Format : UTF-8
Codec ID : S_TEXT/UTF8
Codec ID/Info : UTF-8 Plain Text
Duration : 5 s 505 ms
Bit rate : 43 b/s
Count of elements : 1
Stream size : 30.0 Bytes (0%)
Title : Forced
Language : Russian
Default : Yes
Forced : No

Text #2
ID : 4
Format : UTF-8
Codec ID : S_TEXT/UTF8
Codec ID/Info : UTF-8 Plain Text
Duration : 1 h 59 min
Bit rate : 46 b/s
Count of elements : 1090
Stream size : 40.8 KiB (0%)
Title : Blu-ray
Language : Russian
Default : No
Forced : No

Text #3
ID : 5
Format : UTF-8
Codec ID : S_TEXT/UTF8
Codec ID/Info : UTF-8 Plain Text
Duration : 1 h 49 min
Bit rate : 35 b/s
Count of elements : 1109
Stream size : 28.9 KiB (0%)
Title : Full
Language : English
Default : No
Forced : No

Text #4
ID : 6
Format : UTF-8
Codec ID : S_TEXT/UTF8
Codec ID/Info : UTF-8 Plain Text
Duration : 1 h 49 min
Bit rate : 40 b/s
Count of elements : 1323
Stream size : 32.8 KiB (0%)
Title : SDH
Language : English
Default : No
Forced : No

Menu
00:00:00.000 : en:(01)00:00:00:000
00:06:26.427 : en:(02)00:06:26:427
00:09:26.857 : en:(03)00:09:26:857
00:15:03.193 : en:(04)00:15:03:193
00:21:33.500 : en:(05)00:21:33:500
00:30:17.857 : en:(06)00:30:17:857
00:36:08.165 : en:(07)00:36:08:165
00:40:55.661 : en:(08)00:40:55:661
00:46:56.438 : en:(09)00:46:56:438
00:52:05.747 : en:(10)00:52:05:747
00:59:35.530 : en:(11)00:59:35:530
01:04:23.943 : en:(12)01:04:23:943
01:11:16.688 : en:(13)01:11:16:688
01:15:19.222 : en:(14)01:15:19:222
01:22:42.832 : en:(15)01:22:42:832
01:28:15.206 : en:(16)01:28:15:206
01:33:58.007 : en:(17)01:33:58:007
01:39:21.955 : en:(18)01:39:21:955
01:48:13.903 : en:(19)01:48:13:903
01:50:19.571 : en:(20)01:50:19:571
02:00:10.036 : en:(21)02:00:10:036





Скачать Белоснежка.и.Охотник.2.The.Huntsman.Winter's.War.(Седрик.Николя-Троян).[2016.фантастика.боевик.приключения.BDRip].[720p].[DUB].[Расширенная.версия].[R.G.GoldenShara].torrent без регистрации
Золото ЗОЛОТАЯ РАЗДАЧА! СКАЧАННОЕ НЕ ЗАСЧИТЫВАЕТСЯ! Золото
Дата: Зарегистрирован   [ Тип: внутренний ] Как тут cкачать?
MAGNET ссылка
MAGNET ссылка


Скачать .torrent

12 KB

Статус: проверено
Скачан: торрент - 69 раз, раздача полностью - 53 раз
Размер: 2,22 GB
Оценка:  5 (Голосов: 2)
Поблагодарили: 9
Поделиться ссылкой на эту раздачу с друзьями:
В контактеFacebookОдноклассникиTwitterLivejournalМой МирLiveinternet
 

 

asd-anane

[] 

Спасибо БАААААльшОООООоооЕ!!!! Люблю режиссёрки, как правило они идут в коллекцию благодаря полноте истории.
 

7Жнец7

[] 

Качество плохое.
Мало kbps в видео и качество не сочное.
Тусклое, невзрачное.
Из BDRip 720p только название.
На деле всё печально.
 
Показать сообщения:    


Вы не можете начинать темы
Вы не можете отвечать на сообщения
Вы не можете редактировать свои сообщения
Вы не можете удалять свои сообщения
Вы не можете голосовать в опросах
Вы не можете прикреплять файлы к сообщениям
Вы можете скачивать файлы