Loading...
Error

Скачать Человек-паук: Возвращение домой / Spider-Man: Homecoming [2017, Фантастика, боевик, приключения, BDRip][1080p] [Dub Rus Ukr Лицензия] [R.G. GoldenShara] торрент без регистрации

Статистика раздачи
Размер:  4,79 GB   |    Скачан:  181 раз
Сидов:  1  [  0 KB/s  ]  
 
 
 
Автор Сообщение

Magnetto83

[] 


Человек-паук: Возвращение домой / Spider-Man: Homecoming




Год выпуска: 2017
Выпущено: США Студия: Columbia Pictures, Marvel Studios Inc., Pascal Pictures
Жанр: Фантастика, боевик, приключения
Продолжительность: 02:13:28
Перевод 1 и 2: Профессиональный (полное дублирование) | Blu-ray EUR |
Субтитры: Русские (форс. + полные), украинские (форс. + повні), английские (forced+full)
Навигация по главам: Сохранены оригинальные главы как на Blu-ray

Слоган: «Homework can wait. The city can't»

Режиссер: Джон Уоттс / Jon Watts

В ролях: Том Холланд (II), Роберт Дауни мл., Майкл Китон, Мариса Томей, Джон Фавро, Джейкоб Баталон, Зендея, Лора Хэрриер, Тони Револори, Дональд Гловер

Описание: После исторической встречи с командой Мстителей Питер Паркер возвращается домой, стараясь зажить обычной жизнью под опекой своей тёти Мэй. Но теперь за Питером приглядывает ещё кое-что… Тони Старк видел Человека-Паука в деле и должен стать его наставником. Когда новый злодей Стервятник угрожает уничтожить всё, что дорого Питеру, приходит время доказать всем, что такое настоящий супергерой.



Возраст: 16+ (зрителям, достигшим 16 лет)
Рейтинг MPAA: PG-13 (детям до 13 лет просмотр нежелателен)

Качество: BDRip 1080p
Формат: MKV
Видео кодек: H.264
Аудио кодек: AC3
Видео: 1920x800 (2.40:1), 4235 Кбит/с, 23.976 fps
Аудио 1: Русский Dolby Digital 5.1 (448 Кбит/с) - Вшит в контейнер
Аудио 2: Украинский Dolby Digital 5.1 (448 Кбит/с) - Отдельным Файлом


x264 [info]: frame I:1715 Avg QP:16.35 size:130501
x264 [info]: frame P:50709 Avg QP:19.59 size: 41724
x264 [info]: frame B:139576 Avg QP:21.72 size: 13606
x264 [info]: consecutive B-frames: 4.3% 6.9% 7.1% 42.1% 11.6% 17.7% 4.7% 5.1% 0.4%
x264 [total]: encoded 192000 frames, 1.01 fps, 4234.45 kb/s



General
Complete name : G:\Видео\Мои Рипы 1080p\Кино-Хиты 2017\Человек-Паук. Возвращение домой 2017 Dub Rus Ukr BDRip 1080p\Человек-Паук. Возвращение домой 2017 Dub BDRip 1080p.mkv
Format : Matroska
Format version : Version 4 / Version 2
File size : 4.37 GiB
Duration : 2h 13mn
Overall bit rate : 4 685 Kbps
Movie name : Человек-Паук. Возвращение домой 2017 Dub Rus BDRip 1080p By R.G. GoldenShara
Encoded date : UTC 2017-10-29 11:53:09
Writing application : mkvmerge v7.0.0 ('Where We Going') 64bit built on Jun 9 2014 15:16:27
Writing library : libebml v1.3.0 + libmatroska v1.4.1
Attachements : Cover.jpg
DURATION : 02:13:28.032000000
NUMBER_OF_FRAMES : 250251
NUMBER_OF_BYTES : 448449792
_STATISTICS_WRITING_APP : mkvmerge v7.0.0 ('Where We Going') 64bit built on Jun 9 2014 15:16:27
_STATISTICS_WRITING_DATE_UTC : 2017-10-29 11:53:09
_STATISTICS_TAGS : BPS DURATION NUMBER_OF_FRAMES NUMBER_OF_BYTES

Video
ID : 1
Format : AVC
Format/Info : Advanced Video Codec
Format profile : High@L4.1
Format settings, CABAC : Yes
Format settings, ReFrames : 5 frames
Codec ID : V_MPEG4/ISO/AVC
Duration : 2h 13mn
Bit rate : 4 235 Kbps
Width : 1 920 pixels
Height : 800 pixels
Display aspect ratio : 2.40:1
Frame rate mode : Constant
Frame rate : 23.976 fps
Color space : YUV
Chroma subsampling : 4:2:0
Bit depth : 8 bits
Scan type : Progressive
Bits/(Pixel*Frame) : 0.115
Stream size : 3.86 GiB (88%)
Title : Человек-Паук. Возвращение домой 2017 BDRip 1080p By Magnetto 83
Writing library : x264 core 146 r2538 121396c
Encoding settings : cabac=1 / ref=5 / deblock=1:-3:-3 / analyse=0x3:0x113 / me=umh / subme=11 / psy=1 / psy_rd=1.00:0.00 / mixed_ref=1 / me_range=32 / chroma_me=1 / trellis=2 / 8x8dct=1 / cqm=0 / deadzone=21,11 / fast_pskip=0 / chroma_qp_offset=-2 / threads=3 / lookahead_threads=1 / sliced_threads=0 / nr=0 / decimate=1 / interlaced=0 / bluray_compat=0 / constrained_intra=0 / bframes=8 / b_pyramid=2 / b_adapt=2 / b_bias=0 / direct=3 / weightb=1 / open_gop=0 / weightp=2 / keyint=250 / keyint_min=23 / scenecut=40 / intra_refresh=0 / rc=2pass / mbtree=0 / bitrate=4235 / ratetol=1.0 / qcomp=0.60 / qpmin=0 / qpmax=69 / qpstep=4 / cplxblur=20.0 / qblur=0.5 / ip_ratio=1.40 / pb_ratio=1.30 / aq=2:1.00
Language : English
Default : Yes
Forced : No

Audio
ID : 2
Format : AC-3
Format/Info : Audio Coding 3
Mode extension : CM (complete main)
Format settings, Endianness : Big
Codec ID : A_AC3
Duration : 2h 13mn
Bit rate mode : Constant
Bit rate : 448 Kbps
Channel(s) : 6 channels
Channel positions : Front: L C R, Side: L R, LFE
Sampling rate : 48.0 KHz
Compression mode : Lossy
Stream size : 428 MiB (10%)
Title : DD 5.1 @ 448 Kbps - Дубляж | Blu-ray EUR |
Language : Russian
Default : Yes
Forced : No

Text #1
ID : 3
Format : UTF-8
Codec ID : S_TEXT/UTF8
Codec ID/Info : UTF-8 Plain Text
Title : Форс.
Language : Russian
Default : Yes
Forced : No

Text #2
ID : 4
Format : UTF-8
Codec ID : S_TEXT/UTF8
Codec ID/Info : UTF-8 Plain Text
Title : Полные
Language : Russian
Default : No
Forced : No

Text #3
ID : 5
Format : UTF-8
Codec ID : S_TEXT/UTF8
Codec ID/Info : UTF-8 Plain Text
Title : Форс.
Language : Ukrainian
Default : No
Forced : No

Text #4
ID : 6
Format : UTF-8
Codec ID : S_TEXT/UTF8
Codec ID/Info : UTF-8 Plain Text
Title : Повні
Language : Ukrainian
Default : No
Forced : No

Text #5
ID : 7
Format : UTF-8
Codec ID : S_TEXT/UTF8
Codec ID/Info : UTF-8 Plain Text
Title : Forced
Language : English
Default : No
Forced : No

Text #6
ID : 8
Format : UTF-8
Codec ID : S_TEXT/UTF8
Codec ID/Info : UTF-8 Plain Text
Title : Full
Language : English
Default : No
Forced : No

Menu
00:00:00.000 : en:Studio Logos
00:00:35.990 : en:Toomes loses a job and gains a new one
00:04:55.990 : en:Marvel Logo
00:05:30.990 : en:a Film by Peter Parker
00:09:53.990 : en:Peter waits the school day out
00:14:31.990 : en:Spider-Man keeps the neighborhood friendly
00:18:04.990 : en:Spider-Man battles the Avengers
00:20:48.990 : en:Peter finds a surprise at home
00:25:42.990 : en:Ned asks for all the details
00:29:08.990 : en:Peter debates bringing Spider-Man to the party
00:31:59.990 : en:Spider-Man chases after a van
00:36:45.990 : en:Tony instructs Peter to stand down
00:39:16.990 : en:Toomes attempts to reason with his crew
00:42:22.990 : en:Ned helps Peter with a shop project
00:46:01.990 : en:Peter rejoins the team
00:50:11.990 : en:Spider-Man makes a new friend while tracking bad guys
00:54:37.990 : en:Spider-Man races back to his team
00:58:46.990 : en:The Decathlon Team celebrates at the Washington Monument
01:05:07.990 : en:Toomes contemplates his recent run of bad luck
01:06:12.990 : en:The Decathlon team is welcomed back as heroes
01:08:37.990 : en:Peter tries out interrogation mode
01:12:00.990 : en:Spider-Man commutes on the ferry
01:19:40.990 : en:Toomes calls for a bigger job
01:20:17.990 : en:Perter faces the consequences of his mistake
01:23:32.990 : en:Peter turns himself around
01:26:54.990 : en:Peter meets Liz's family
01:29:39.990 : en:Toomes gives Peter the Dad talk
01:34:10.990 : en:Peter leaves the dance early
01:36:36.990 : en:Ned gives Spider-Man directions
01:39:17.990 : en:Spider-Man locates the Vulture's lair
01:42:22.990 : en:Peter picks himself up
01:44:41.990 : en:Vulture takes to the sky
01:50:23.990 : en:Spider-Man and Vulture battle
01:54:28.990 : en:Peter says a difficult goodbye
01:55:59.990 : en:The Decathlon Team celebrates their win
01:57:51.990 : en:Tony makes Peter an offer
02:02:15.990 : en:Peter suits up
02:02:53.990 : en:End Credits
02:05:02.990 : en:Toomes encounters a former business partner
02:05:56.990 : en:End Credits Continued
02:12:27.990 : en:Patience
02:13:25.990 : en:a Film by Peter Parker (Extended Director's Cut)







Скачать Человек-паук.Возвращение.домой.Spider-Man.Homecoming.[2017.Фантастика.боевик.приключения.BDRip][1080p].[Dub.Rus.Ukr.Лицензия].[R.G.GoldenShara].torrent без регистрации
Золото ЗОЛОТАЯ РАЗДАЧА! СКАЧАННОЕ НЕ ЗАСЧИТЫВАЕТСЯ! Золото
Дата: Зарегистрирован   [ Тип: внутренний ] Как тут cкачать?
MAGNET ссылка
MAGNET ссылка


Скачать .torrent

13 KB

Статус: проверено
Скачан: торрент - 181 раз, раздача полностью - 134 раз
Размер: 4,79 GB
Оценка:  5 (Голосов: 9)
Поблагодарили: 17
Поделиться ссылкой на эту раздачу с друзьями:
В контактеFacebookОдноклассникиTwitterLivejournalМой МирLiveinternet
 

 

Magnetto83

[] 

ab Обновлено! Замена тунца на Blu-ray EUR. Добавлена украинская звуковая дорожка в формате ас3 448 кбпс отдельным файлом. ad
 

7Жнец7

[] 

Просьба сделать BDRip 720p.
Заранее Спасибо!
 
Показать сообщения:    


Вы не можете начинать темы
Вы не можете отвечать на сообщения
Вы не можете редактировать свои сообщения
Вы не можете удалять свои сообщения
Вы не можете голосовать в опросах
Вы не можете прикреплять файлы к сообщениям
Вы можете скачивать файлы