Loading...
Error

Скачать Миссия правосудия (Комендантский час 3) / Mission of Justice (Стив Барнетт) [1992, боевик, BDRip] [1080p] [MVO (ТВЦ)] + 2x[AVO (Карцев, Марченко)] [R.G. Goldenshara] торрент без регистрации

Статистика раздачи
Размер:  4,38 GB   |    Скачан:  68 раз
Сидов:  1  [  0 KB/s  ]  
 
 
 
Автор Сообщение

sobmaster

[] 



Миссия правосудия (Комендантский час 3)
Mission of Justice




Год выпуска: 1992
Страна: США
Выпущено: Image Organization, Westwind Productions Inc
Слоган: «Out of uniform. Out of control...»
Жанр: боевик

Продолжительность: 01:46:06
Перевод #1: Профессиональный (многоголосый, закадровый) (ТВЦ)
Перевод #2: Авторский (одноголосый, закадровый) (Карцев)
Перевод #3: Авторский (одноголосый, закадровый) (Марченко)
Режиссер: Стив Барнетт
Сценарий: Джордж Саундерс, Джон Брайант Хедберг, Пьер Дэвид
Продюсер: Курт Андерсон, Пьер Дэвид, Роберт В. Манн
Оператор: Питер Фернбергер
Композитор: Ричард Бауэрс
Художник: Шэрон Рид, Брайан В. Уилкинсон, Гари Рэндолл
Монтаж: Брент А. Шонфелд
В ролях:


Джефф Уинкотт (Kurt Harris), Бриджит Нильсен (Dr. Rachel K. Larkin), Лука Берковичи (Roger Stockwell), Маттиас Хьюз (Titus Larkin), Карен Шеперд (Lynn Steele), Билли «Слай» Уильямс (Jimmy Parker), Кристофер Криса (Sergeant Duncan), Синди Пасс (Erin Miller), Том Вуд (Samuel), Джеймс Лью (Akiro), Адриан Рикард (Flora Parker), Тони Бертон (Cedric Williams), Джефф Прюитт (Sal), Дэвид Эрсин (Ronald Greyman), Бетси Су (Maria)
Мировая премьера: 2 декабря 1992
Релиз на DVD: 30 октября 2008, «Дивайс»
MPAA: - Лицам до 17 лет обязательно присутствие взрослого

Описание: Полицейский Курт Харрис хочет, чтобы на улицах города царил порядок. Доктор Рэчел Ларкин, выдвигая свою кандидатуру на пост мэра, заявляет, что именно под ее руководством общественная организация «Миссия правосудия» способна этот порядок поддерживать.
Костоломы — «миссионеры» действительно держат в руках весь город, расправляясь с неугодными любой ценой. Кулаком и дубинкой. сея смерть на своем пути. Курт Харрис внедряется в ряды «Миссии правосудия».


Качество: BDRip 1080p
Контейнер: MKV
Видео: AVC, 1920x1076 (16:9), 6017 kbps, 23.976 fps, 0.121 bpp
Аудио #1: русский /; AC3 /; 2.0 /; 48 kHz /; 192 kbps /; 16 bit; || MVO (ТВЦ)
Аудио #2: русский /; AC3 /; 2.0 /; 48 kHz /; 192 kbps /; 16 bit; || AVO (Карцев)
Аудио #3: русский /; AC3 /; 2.0 /; 48 kHz /; 192 kbps /; 16 bit; || AVO (Марченко)

АНОНСЫ ПОПУЛЯРНЫХ РАЗДАЧ

Код:

General
Unique ID                   : 232637994380843744612808298295010160392 (0xAF0472AD608E238C9DB4166781B26F08)
Complete name               : E:\Мои рипы\Миссия правосудия.1992.BDRip.1080p.MVO+2xAVO.mkv
Format                      : Matroska
Format version              : Version 4 / Version 2
File size                   : 4.38 GiB
Duration                    : 1 h 34 min
Overall bit rate            : 6 597 kb/s
Encoded date                : UTC 2018-04-05 17:58:09
Writing application         : mkvmerge v6.8.0 ('Theme for Great Cities') 64bit built on Mar  2 2014 21:34:26
Writing library             : libebml v1.3.0 + libmatroska v1.4.1
Attachments                 : mission_of_justice-736768485-large.png

Video
ID                          : 1
Format                      : AVC
Format/Info                 : Advanced Video Codec
Format profile              : High@L4.1
Format settings             : CABAC / 4 Ref Frames
Format settings, CABAC      : Yes
Format settings, ReFrames   : 4 frames
Codec ID                    : V_MPEG4/ISO/AVC
Duration                    : 1 h 34 min
Bit rate                    : 6 017 kb/s
Width                       : 1 920 pixels
Height                      : 1 076 pixels
Display aspect ratio        : 16:9
Frame rate mode             : Constant
Frame rate                  : 23.976 (24000/1001) FPS
Color space                 : YUV
Chroma subsampling          : 4:2:0
Bit depth                   : 8 bits
Scan type                   : Progressive
Bits/(Pixel*Frame)          : 0.121
Stream size                 : 3.91 GiB (89%)
Writing library             : x264 core 146 r2538 121396c
Encoding settings           : cabac=1 / ref=4 / deblock=1:-3:-3 / analyse=0x3:0x113 / me=umh / subme=11 / psy=1 / psy_rd=1.00:0.15 / mixed_ref=1 / me_range=48 / chroma_me=1 / trellis=2 / 8x8dct=1 / cqm=0 / deadzone=21,11 / fast_pskip=0 / chroma_qp_offset=-4 / threads=6 / lookahead_threads=1 / sliced_threads=0 / nr=0 / decimate=0 / interlaced=0 / bluray_compat=0 / constrained_intra=0 / bframes=8 / b_pyramid=2 / b_adapt=2 / b_bias=0 / direct=2 / weightb=1 / open_gop=0 / weightp=2 / keyint=250 / keyint_min=23 / scenecut=40 / intra_refresh=0 / rc_lookahead=50 / rc=2pass / mbtree=0 / bitrate=6017 / ratetol=1.0 / qcomp=0.60 / qpmin=0 / qpmax=69 / qpstep=4 / cplxblur=20.0 / qblur=0.5 / vbv_maxrate=14000 / vbv_bufsize=14000 / nal_hrd=none / filler=0 / ip_ratio=1.40 / pb_ratio=1.30 / aq=2:1.00
Language                    : English
Default                     : Yes
Forced                      : No
Color range                 : Limited
Color primaries             : Generic film
Matrix coefficients         : YCgCo

Audio #1
ID                          : 2
Format                      : AC-3
Format/Info                 : Audio Coding 3
Codec ID                    : A_AC3
Duration                    : 1 h 34 min
Bit rate mode               : Constant
Bit rate                    : 192 kb/s
Channel(s)                  : 2 channels
Channel positions           : Front: L R
Sampling rate               : 48.0 kHz
Frame rate                  : 31.250 FPS (1536 SPF)
Bit depth                   : 16 bits
Compression mode            : Lossy
Stream size                 : 130 MiB (3%)
Title                       : MVO (ТВЦ)
Language                    : Russian
Service kind                : Complete Main
Default                     : Yes
Forced                      : No

Audio #2
ID                          : 3
Format                      : AC-3
Format/Info                 : Audio Coding 3
Codec ID                    : A_AC3
Duration                    : 1 h 34 min
Bit rate mode               : Constant
Bit rate                    : 192 kb/s
Channel(s)                  : 2 channels
Channel positions           : Front: L R
Sampling rate               : 48.0 kHz
Frame rate                  : 31.250 FPS (1536 SPF)
Bit depth                   : 16 bits
Compression mode            : Lossy
Stream size                 : 130 MiB (3%)
Title                       : AVO (Карцев)
Language                    : Russian
Service kind                : Complete Main
Default                     : No
Forced                      : No

Audio #3
ID                          : 4
Format                      : AC-3
Format/Info                 : Audio Coding 3
Codec ID                    : A_AC3
Duration                    : 1 h 34 min
Bit rate mode               : Constant
Bit rate                    : 192 kb/s
Channel(s)                  : 2 channels
Channel positions           : Front: L R
Sampling rate               : 48.0 kHz
Frame rate                  : 31.250 FPS (1536 SPF)
Bit depth                   : 16 bits
Compression mode            : Lossy
Stream size                 : 130 MiB (3%)
Title                       : AVO (Марченко)
Language                    : Russian
Service kind                : Complete Main
Default                     : No
Forced                      : No


Раздаю ночью с 0.00 до 7.00 до 5 скачавших. На раздачи не возвращаюсь.





Скачать Миссия.правосудия.(Комендантский.час.3).Mission.of.Justice.(Стив.Барнетт).[1992.боевик.BDRip].[1080p].[MVO.(ТВЦ)].+.2x[AVO.(Карцев.Марченко)].[R.G.Goldenshara].torrent без регистрации
Золото ЗОЛОТАЯ РАЗДАЧА! СКАЧАННОЕ НЕ ЗАСЧИТЫВАЕТСЯ! Золото
Дата: Зарегистрирован   [ Тип: внутренний ] Как тут cкачать?
MAGNET ссылка
MAGNET ссылка


Скачать .torrent

12 KB

Статус: проверено DHT
Скачан: торрент - 68 раз, раздача полностью - 20 раз
Размер: 4,38 GB
Оценка:  5 (Голосов: 5)
Поблагодарили: 8
Поделиться ссылкой на эту раздачу с друзьями:
В контактеFacebookОдноклассникиTwitterLivejournalМой МирLiveinternet
 

 
Показать сообщения:    


Вы не можете начинать темы
Вы не можете отвечать на сообщения
Вы не можете редактировать свои сообщения
Вы не можете удалять свои сообщения
Вы не можете голосовать в опросах
Вы не можете прикреплять файлы к сообщениям
Вы можете скачивать файлы