Loading...
Error

Скачать План Б: Нафиг план А / Plan B: Scheiss auf Plan A (Уфук Генк, Михаэль Попеску) [2017, Боевик, комедия, BDRip] [720p] [DVO] (datynet & Galina Vasyukova) торрент без регистрации

Статистика раздачи
Размер:  1,32 GB   |    Скачан:  110 раз
Сидов:  1  [  0 KB/s  ]  
 
 
 
Автор Сообщение

leon030982

[] 

План Б: Нафиг план А / Plan B: Scheiss auf Plan A

Информация о фильме

Год выхода: 2017
Жанр: Боевик, комедия
Страна: Германия
Студия: Lightburst Pictures,Papermoon Films, Reel Deal Action
Продолжительность: 01:38:53
Озвучание: Любительское (двухголосое) [datynet & Galina Vasyukova] ; перевод: Куценко

Режиссер: Уфук Генк / Ufuk Genc, Михаэль Попеску / Michael Popescu

В ролях: Кан Айдын, Чарли Юн, Фонг Джанг, Эвген Боатенг, Лорен Дэниелс, Юлия Дитце, Гедеон Буркхард, Генри Мейер, Флориан Клейн, Дженнифер Бишоф, Линда Гегуш, Норберт Гафури, Хайди Манимейкер, Леа Морнар, Фрэнк Рихарц, Лоренц Хидэёси Рувве, Измаил Сахин.

О фильме:

В современном Берлине три друга-каскадера (турок, кореец и таец) никак не могут найти приличную работу. Зато их находят приключения — жену местного крёстного отца, русского разумеется, похитили, а парней подставили, и теперь нашим героям вместе с бестолковым африканским другом придется обежать весь Берлин, чтобы восстановить справедливость.





Файл

Кодек: x.264
Качество: BDRip 720
Видео: 1280x720 (4:2:0), 25fps, MPEG4 Video (H264) Main@L3.1~ 1 714 kb/s avg, 0.074 bit/ pixel
Звук: 48 kHz, MPEG Layer 3, 2 ch, ~192.00 kbps avg
Субтитры: отсутствуют

Семпл
General
Unique ID : 211498470884860007596814481902051945438 (0x9F1D1FB31F1730B1A3D1F9F3C6FA6BDE)
Complete name : F:\Plan.B.Scheiss.auf.Plan.A.mkv
Format : Matroska
Format version : Version 4 / Version 2
File size : 1.32 GiB
Duration : 1 h 39 min
Overall bit rate : 1 894 kb/s
Movie name : Plano B - COMANDOTORRENTS.COM
Encoded date : UTC 2018-04-06 08:57:50
Writing application : mkvmerge v9.6.0 ('Slave To Your Mind') 64bit
Writing library : libebml v1.3.4 + libmatroska v1.4.5

Video
ID : 1
Format : AVC
Format/Info : Advanced Video Codec
Format profile : Main@L3.1
Format settings : CABAC / 2 Ref Frames
Format settings, CABAC : Yes
Format settings, RefFrames : 2 frames
Format settings, GOP : M=1, N=13
Codec ID : V_MPEG4/ISO/AVC
Duration : 1 h 39 min
Bit rate : 1 664 kb/s
Width : 1 280 pixels
Height : 720 pixels
Display aspect ratio : 16:9
Frame rate mode : Constant
Frame rate : 25.000 FPS
Color space : YUV
Chroma subsampling : 4:2:0
Bit depth : 8 bits
Scan type : Progressive
Bits/(Pixel*Frame) : 0.072
Stream size : 1.16 GiB (88%)
Default : Yes
Forced : No

Audio
ID : 2
Format : MPEG Audio
Format version : Version 1
Format profile : Layer 3
Codec ID : A_MPEG/L3
Codec ID/Hint : MP3
Duration : 1 h 39 min
Bit rate mode : Constant
Bit rate : 192 kb/s
Channel(s) : 2 channels
Sampling rate : 48.0 kHz
Compression mode : Lossy
Delay relative to video : -40 ms
Stream size : 137 MiB (10%)
Default : Yes
Forced : No
Релиз от:



Скачать План.Б.Нафиг.план.А.Plan.B.Scheiss.auf.Plan.A.(Уфук.Генк.Михаэль.Попеску).[2017.Боевик.комедия.BDRip].[720p].[DVO].(datynet.&.Galina.Vasyukova).torrent без регистрации
Золото ЗОЛОТАЯ РАЗДАЧА! СКАЧАННОЕ НЕ ЗАСЧИТЫВАЕТСЯ! Золото
Дата: Зарегистрирован   [ Тип: внутренний ] Как тут cкачать?
MAGNET ссылка
MAGNET ссылка


Скачать .torrent

14 KB

Статус: проверено DHT
Скачан: торрент - 110 раз, раздача полностью - 165 раз
Размер: 1,32 GB
Оценка:  - (Голосов: 0)
Поблагодарили: 6
Поделиться ссылкой на эту раздачу с друзьями:
В контактеFacebookОдноклассникиTwitterLivejournalМой МирLiveinternet
 

 
Показать сообщения:    


Вы не можете начинать темы
Вы не можете отвечать на сообщения
Вы не можете редактировать свои сообщения
Вы не можете удалять свои сообщения
Вы не можете голосовать в опросах
Вы не можете прикреплять файлы к сообщениям
Вы можете скачивать файлы