Loading...
Error

Скачать Тайна Коко / Coco (Ли Анкрич, Эдриан Молина) [2017, Мультфильм, мюзикл, фэнтези, комедия, детектив, приключения, семейный, BDRip][1080p] [Dub Лицензия] [R.G. GoldenShara] торрент без регистрации

Статистика раздачи
Размер:  4,37 GB   |    Скачан:  100 раз
Сидов:  2  [  0 KB/s  ]  
 
 
 
Автор Сообщение

Magnetto83

[] 


Тайна Коко / Coco


Год выпуска: 2017
Выпущено: США Студия: Pixar Animation Studios, Walt Disney Pictures
Жанр: Мультфильм, мюзикл, фэнтези, комедия, детектив, приключения, семейный
Продолжительность: 01:45:02
Перевод: Профессиональный (полное дублирование)| Blu-ray CEE |
Субтитры: Русские (Форс.+Полные), Английские (Full+SHD+SHD Colored)
Навигация по главам: Сохранены оригинальные главы как на Blu-ray

Слоган: «The celebration of a lifetime»

Режиссер: Ли Анкрич, Эдриан Молина

В ролях: Энтони Гонсалес, Гаэль Гарсиа Берналь, Бенджамин Брэтт, Аланна Юбак, Рене Виктор, Хайме Камиль, Альфонсо Арау, Херберт Сигенса, Габриэль Иглесиас, Ломбардо Бойяр

Описание: 12-летний Мигель живёт в мексиканской деревушке в семье сапожников и тайно мечтает стать музыкантом. Тайно — потому что в его семейном клане музыка считается проклятием. Когда-то его прапрадед оставил свою жену, прапрабабку Мигеля, ради мечты, которая теперь не даёт спокойно жить Мигелю. С тех пор музыкальная тема в семье стала табу. Мигель обнаруживает, что между ним и его любимым певцом Эрнесто де ла Крусом, ныне покойным, существует некая — пока неназванная — связь. Паренёк отправляется к своему кумиру в Страну Мёртвых, где встречает души своих предков. Мигель знакомится там с духом-трикстером по имени Гектор (в облике скелета), который становится его проводником. Вдвоём они отправляются на поиски де ла Круса.



Возраст: 6+ (Зрителям, достигшим 6 лет)

Рейтинг MPAA: PG (Рекомендуется присутствие родителей)

Качество: BDRip 1080p
Формат: MKV
Видео кодек: H.264
Аудио кодек: AC3
Видео: 1920x804 (2.40:1), 5502 Кбит/с, 23.976 fps
Аудио: Русский Dolby Digital 5.1 (448 Кбит/с)


x264 [info]: frame I:1341 Avg QP:16.42 size:202706
x264 [info]: frame P:41527 Avg QP:19.40 size: 53034
x264 [info]: frame B:108235 Avg QP:21.52 size: 17188
x264 [info]: consecutive B-frames: 6.6% 5.2% 12.7% 19.5% 22.6% 31.0% 1.6% 0.3% 0.3%
x264 [total]: encoded 151103 frames, 1.41 fps, 5502.14 kb/s



General
Complete name : G:\Видео\Мои Рипы 1080p Мульты\Тайна Коко 2017 Dub Rus BDRip 1080p.mkv
Format : Matroska
Format version : Version 4 / Version 2
File size : 4.37 GiB
Duration : 1h 45mn
Overall bit rate : 5 953 Kbps
Movie name : Тайна Коко 2017 Dub Rus BDRip 1080p R.G. GoldenShara
Encoded date : UTC 2018-04-06 11:12:10
Writing application : mkvmerge v7.8.0 ('River Man') 32bit built on Mar 27 2015 16:18:02
Writing library : libebml v1.3.1 + libmatroska v1.4.2
Attachements : Cover
DURATION : 01:45:02.080000000
NUMBER_OF_FRAMES : 196940
NUMBER_OF_BYTES : 352916480
_STATISTICS_WRITING_APP : mkvmerge v7.8.0 ('River Man') 32bit built on Mar 27 2015 16:18:02
_STATISTICS_WRITING_DATE_UTC : 2018-04-06 11:12:10
_STATISTICS_TAGS : BPS DURATION NUMBER_OF_FRAMES NUMBER_OF_BYTES

Video
ID : 1
Format : AVC
Format/Info : Advanced Video Codec
Format profile : High@L4.1
Format settings, CABAC : Yes
Format settings, ReFrames : 5 frames
Codec ID : V_MPEG4/ISO/AVC
Duration : 1h 45mn
Bit rate : 5 502 Kbps
Width : 1 920 pixels
Height : 804 pixels
Display aspect ratio : 2.40:1
Frame rate mode : Constant
Frame rate : 23.976 fps
Color space : YUV
Chroma subsampling : 4:2:0
Bit depth : 8 bits
Scan type : Progressive
Bits/(Pixel*Frame) : 0.149
Stream size : 3.95 GiB (90%)
Title : Тайна Коко 2017 BDRip 1080p By Magnetto 83
Writing library : x264 core 146 r2538 121396c
Encoding settings : cabac=1 / ref=5 / deblock=1:0:0 / analyse=0x3:0x113 / me=umh / subme=11 / psy=1 / psy_rd=1.00:0.00 / mixed_ref=1 / me_range=32 / chroma_me=1 / trellis=2 / 8x8dct=1 / cqm=0 / deadzone=21,11 / fast_pskip=0 / chroma_qp_offset=-2 / threads=3 / lookahead_threads=1 / sliced_threads=0 / nr=0 / decimate=1 / interlaced=0 / bluray_compat=0 / constrained_intra=0 / bframes=8 / b_pyramid=2 / b_adapt=2 / b_bias=0 / direct=3 / weightb=1 / open_gop=0 / weightp=2 / keyint=250 / keyint_min=23 / scenecut=40 / intra_refresh=0 / rc=2pass / mbtree=0 / bitrate=5502 / ratetol=1.0 / qcomp=0.60 / qpmin=0 / qpmax=69 / qpstep=4 / cplxblur=20.0 / qblur=0.5 / ip_ratio=1.40 / pb_ratio=1.30 / aq=2:1.00
Language : English
Default : Yes
Forced : No

Audio
ID : 2
Format : AC-3
Format/Info : Audio Coding 3
Mode extension : CM (complete main)
Format settings, Endianness : Big
Codec ID : A_AC3
Duration : 1h 45mn
Bit rate mode : Constant
Bit rate : 448 Kbps
Channel(s) : 6 channels
Channel positions : Front: L C R, Side: L R, LFE
Sampling rate : 48.0 KHz
Compression mode : Lossy
Stream size : 337 MiB (8%)
Title : DD 5.1 @ 448 kbps - Дубляж | Blu-ray CEE |
Language : Russian
Default : Yes
Forced : No

Text #1
ID : 3
Format : UTF-8
Codec ID : S_TEXT/UTF8
Codec ID/Info : UTF-8 Plain Text
Title : Форс.
Language : Russian
Default : Yes
Forced : No

Text #2
ID : 4
Format : UTF-8
Codec ID : S_TEXT/UTF8
Codec ID/Info : UTF-8 Plain Text
Title : Полные
Language : Russian
Default : No
Forced : No

Text #3
ID : 5
Format : UTF-8
Codec ID : S_TEXT/UTF8
Codec ID/Info : UTF-8 Plain Text
Title : Full
Language : English
Default : No
Forced : No

Text #4
ID : 6
Format : UTF-8
Codec ID : S_TEXT/UTF8
Codec ID/Info : UTF-8 Plain Text
Title : SDH
Language : English
Default : No
Forced : No

Text #5
ID : 7
Format : UTF-8
Codec ID : S_TEXT/UTF8
Codec ID/Info : UTF-8 Plain Text
Title : SDH Colored
Language : English
Default : No
Forced : No

Menu
00:00:00.000 : en:Chapter 1
00:06:40.191 : en:Chapter 2
00:08:41.520 : en:Chapter 3
00:11:13.589 : en:Chapter 4
00:14:20.317 : en:Chapter 5
00:17:06.942 : en:Chapter 6
00:18:20.933 : en:Chapter 7
00:22:05.991 : en:Chapter 8
00:24:19.958 : en:Chapter 9
00:27:44.829 : en:Chapter 10
00:29:07.912 : en:Chapter 11
00:32:15.308 : en:Chapter 12
00:35:18.407 : en:Chapter 13
00:41:25.524 : en:Chapter 14
00:47:04.696 : en:Chapter 15
00:50:54.175 : en:Chapter 16
00:54:23.885 : en:Chapter 17
00:56:45.026 : en:Chapter 18
01:01:42.615 : en:Chapter 19
01:03:28.137 : en:Chapter 20
01:08:58.217 : en:Chapter 21
01:15:17.262 : en:Chapter 22
01:18:56.773 : en:Chapter 23
01:21:31.761 : en:Chapter 24
01:24:31.816 : en:Chapter 25
01:28:23.464 : en:Chapter 26
01:33:14.755 : en:Chapter 27
01:36:10.472 : en:Chapter 28







Скачать Тайна.Коко.Coco.(Ли.Анкрич.Эдриан.Молина).[2017.Мультфильм.мюзикл.фэнтези.комедия.детектив.приключения.семейный.BDRip][1080p].[Dub.Лицензия].[R.G.GoldenShara].torrent без регистрации
Золото ЗОЛОТАЯ РАЗДАЧА! СКАЧАННОЕ НЕ ЗАСЧИТЫВАЕТСЯ! Золото
Дата: Зарегистрирован   [ Тип: внутренний ] Как тут cкачать?
MAGNET ссылка
MAGNET ссылка


Скачать .torrent

11 KB

Статус: проверено
Скачан: торрент - 100 раз, раздача полностью - 100 раз
Размер: 4,37 GB
Оценка:  5 (Голосов: 7)
Поблагодарили: 15
Поделиться ссылкой на эту раздачу с друзьями:
В контактеFacebookОдноклассникиTwitterLivejournalМой МирLiveinternet
 

 

Magnetto83

[] 

ab Обновлено! Звук заменён на лицензию Blu-ray CEE! ad
 

копылов геннадий николаев

[] 

Спасибо за отличный мультик!!! az
 

Yurik_LP

[] 

Magnetto83, дружище, как всегда на высоте!! Спасибо тебе!!
 

wuwechka

[] 

ay Даже в праздник работа не стоит. ay
 

Magnetto83

[] 

ab Праздник праздником..... А релизы.... сами себя не обновят! ad Уважаемые друзья, вот хочется сказать.... мы выкладываем релизы, без всякого коммерческого интереса. Мне очень хотелось бы угодить всем и каждому. Делать и 720-ки и 1080-ки. Но на всё это не хватает не времени, не ресурсов. Жаль что так! Простите если кого-то обидел, или не уделил должного внимания! bn
 

OlegRo

[] 

Релизы от Magnetto - лучшие на свете! ay С праздником, дружище! az
 

Magnetto83

[] 

ab Спасибо, OlegRo! ah За смущал! ad И Тебя с праздником!!! az
 
Показать сообщения:    


Вы не можете начинать темы
Вы не можете отвечать на сообщения
Вы не можете редактировать свои сообщения
Вы не можете удалять свои сообщения
Вы не можете голосовать в опросах
Вы не можете прикреплять файлы к сообщениям
Вы можете скачивать файлы