Loading...
Error

Скачать Битва в Арденнах / Wunderland (Стивен Люк) [2018, военный, WEBRip] [720p] [MVO (GreenРай Studio)] торрент без регистрации

Статистика раздачи
Размер:  2,67 GB   |    Скачан:  107 раз
Сидов:  1  [  0 KB/s  ]  
 
 
 
Автор Сообщение

МихаНЕзатор

[] 

Информация о фильме
Год выхода: 2018
Название: Битва в Арденнах
Оригинальное название: Wunderland
Произведено: США
Категория: военный
Режиссер постановщик: Стивен Люк

В главных ролях: Том Беренджер, Уэйд Эверетт, Стивен Люк, Аарон Курто, Райан Дж. Гилмер, Эндрю Стекер, Джереми Майкл Перейра, Джозеф Сингер, Коди Флери, Кэйси Силл

О фильме: Рождество 1944 года, немцы предпринимают последнюю попытку оттеснить союзнические войска на западном фронте. Взвод лейтенанта Каппы получает приказ занять и удерживать важный перекресток, не уступить его врагу. Героям предстоит найти веру и силы, чтобы выдержать натиск немцев в бою, получившим название "Битва в Арденнах".

Релиз от:

Внимание, имеется видео и аудио реклама от спонсора показа

Файл
Качество: WEBRip 720p
Видео данные: MKV, 1280x536 (2:40:1), 24.000 fps, 4078 Кбит/с
Аудио данные: AC3, 2 ch, 384 Кбит/с
Перевод: Любительский многоголосый (GreenРай Studio)
Продолжительность: 01:25:27
General
Unique ID : 232453600400055941427067377935368469451 (0xAEE0EF5A22B2FE1B9906204BAC423BCB)
Complete name : D:ГРИНРАЙWunderland.2018.P.WEB-DL.720p.mkv
Format : Matroska
Format version : Version 4 / Version 2
File size : 2.67 GiB
Duration : 1 h 25 min
Overall bit rate : 4 464 kb/s
Encoded date : UTC 2018-03-29 11:20:05
Writing application : mkvmerge v8.3.0 ('Over the Horizon') 64bit
Writing library : libebml v1.3.1 + libmatroska v1.4.2

Video
ID : 1
Format : AVC
Format/Info : Advanced Video Codec
Format profile : High@L3.1
Format settings : CABAC / 4 Ref Frames
Format settings, CABAC : Yes
Format settings, RefFrames : 4 frames
Codec ID : V_MPEG4/ISO/AVC
Duration : 1 h 25 min
Bit rate : 4 078 kb/s
Width : 1 280 pixels
Height : 536 pixels
Display aspect ratio : 2.40:1
Frame rate mode : Constant
Frame rate : 24.000 FPS
Color space : YUV
Chroma subsampling : 4:2:0
Bit depth : 8 bits
Scan type : Progressive
Bits/(Pixel*Frame) : 0.248
Stream size : 2.44 GiB (91%)
Writing library : x264 core 146 r2538 121396c
Encoding settings : cabac=1 / ref=1 / deblock=1:0:0 / analyse=0x3:0x113 / me=hex / subme=2 / psy=1 / psy_rd=1.00:0.00 / mixed_ref=0 / me_range=16 / chroma_me=1 / trellis=0 / 8x8dct=1 / cqm=0 / deadzone=21,11 / fast_pskip=1 / chroma_qp_offset=0 / threads=18 / lookahead_threads=4 / sliced_threads=0 / nr=0 / decimate=1 / interlaced=0 / bluray_compat=0 / constrained_intra=0 / bframes=3 / b_pyramid=2 / b_adapt=1 / b_bias=0 / direct=1 / weightb=1 / open_gop=0 / weightp=1 / keyint=250 / keyint_min=23 / scenecut=40 / intra_refresh=0 / rc_lookahead=10 / rc=crf / mbtree=1 / crf=17.0 / qcomp=0.60 / qpmin=0 / qpmax=69 / qpstep=4 / ip_ratio=1.40 / aq=1:1.00
Language : English
Default : Yes
Forced : No

Audio
ID : 2
Format : AC-3
Format/Info : Audio Coding 3
Codec ID : A_AC3
Duration : 1 h 25 min
Bit rate mode : Constant
Bit rate : 384 kb/s
Channel(s) : 2 channels
Channel positions : Front: L R
Sampling rate : 48.0 kHz
Frame rate : 31.250 FPS (1536 SPF)
Bit depth : 16 bits
Compression mode : Lossy
Stream size : 235 MiB (9%)
Service kind : Complete Main
Default : Yes
Forced : No



Скачать Битва.в.Арденнах.Wunderland.(Стивен.Люк).[2018.военный.WEBRip].[720p].[MVO.(GreenРай.Studio)].torrent без регистрации
Золото ЗОЛОТАЯ РАЗДАЧА! СКАЧАННОЕ НЕ ЗАСЧИТЫВАЕТСЯ! Золото
Дата: Зарегистрирован   [ Тип: внутренний ] Как тут cкачать?
MAGNET ссылка
MAGNET ссылка


Скачать .torrent

14 KB

Статус: проверено DHT
Скачан: торрент - 107 раз, раздача полностью - 125 раз
Размер: 2,67 GB
Оценка:  1 (Голосов: 1)
Поблагодарили: 3
Поделиться ссылкой на эту раздачу с друзьями:
В контактеFacebookОдноклассникиTwitterLivejournalМой МирLiveinternet
 

 

valerasan

[] 

Вот так весь мир и узнал,что пиндосы войну выиграли.А вот почему наши так мало снимают про ВОВ?
 

mamayon

[] 

за то вы белый тигр пабедили :)
 
Показать сообщения:    


Вы не можете начинать темы
Вы не можете отвечать на сообщения
Вы не можете редактировать свои сообщения
Вы не можете удалять свои сообщения
Вы не можете голосовать в опросах
Вы не можете прикреплять файлы к сообщениям
Вы можете скачивать файлы